<?xml version="1.0" standalone="no"?>
<!DOCTYPE svg PUBLIC "-//W3C//DTD SVG 1.1//EN" "http://www.w3.org/Graphics/SVG/1.1/DTD/svg11.dtd" >
<svg xmlns="http://www.w3.org/2000/svg" xmlns:xlink="http://www.w3.org/1999/xlink" version="1.1">
<metadata>
Created by FontForge 20190317 at Tue Mar 20 13:20:38 2018
 By ruben
Digitized data copyright 2012-2018, The Mozilla Foundation and Telefonica S.A., bBox Type GmbH and Carrois Corporate GbR, with Reserved Font Name "Fira"
</metadata>
<defs>
<font id="FiraSans-Regular" horiz-adv-x="560" >
  <font-face 
    font-family="Fira Sans"
    font-weight="400"
    font-stretch="normal"
    units-per-em="1000"
    panose-1="2 11 5 3 5 0 0 2 0 4"
    ascent="800"
    descent="-200"
    x-height="527"
    cap-height="689"
    bbox="-756 -353 1360 1105"
    underline-thickness="50"
    underline-position="-100"
    stemh="74"
    stemv="92"
    unicode-range="U+000D-1F310"
  />
<missing-glyph horiz-adv-x="666" 
d="M543 1050v-1400h-420v1400h420zM489 998h-311v-1296h311v1296zM324 451c86 0 111 -55 111 -115c0 -70 -28 -108 -95 -118v-45c0 -15 -13 -24 -25 -24c-13 0 -25 9 -25 24v84c72 4 91 24 91 77c0 39 -11 69 -61 69c-21 0 -35 -3 -52 -11c-5 -2 -9 -3 -13 -3
c-15 0 -24 10 -24 23c0 27 54 39 93 39zM315 120c20 0 35 -15 35 -35c0 -21 -15 -37 -35 -37s-35 16 -35 37c0 20 15 35 35 35z" />
    <glyph glyph-name="f_f" unicode="ff" horiz-adv-x="610" 
d="M549 676c-58 0 -78 -25 -78 -76v-73h128l-10 -71h-118v-456h-92v456h-193v-456h-92v456h-84v71h84v62c0 88 57 151 174 151c55 0 95 -9 151 -35c28 28 70 45 125 45c50 0 84 -9 126 -27l-29 -67c-34 15 -65 20 -92 20zM379 527v72c0 16 2 32 6 46c-40 15 -71 21 -111 21
c-67 0 -88 -25 -88 -76v-63h193z" />
    <glyph glyph-name="f_f_i" unicode="ffi" horiz-adv-x="857" 
d="M471 527h294v-527h-92v456h-202v-456h-92v456h-193v-456h-92v456h-84v71h84v62c0 88 57 151 174 151c55 0 95 -9 152 -35c30 28 76 45 141 45c59 0 103 -14 146 -36l-32 -64c-33 16 -70 25 -111 25c-74 0 -93 -28 -93 -78v-70zM379 527v69c0 17 2 34 6 49
c-40 15 -71 21 -111 21c-67 0 -88 -25 -88 -76v-63h193z" />
    <glyph glyph-name="f_f_j" unicode="ffj" horiz-adv-x="857" 
d="M765 527v-495c0 -149 -55 -194 -167 -244l-27 67c69 32 102 58 102 171v430h-202v-456h-92v456h-193v-456h-92v456h-84v71h84v62c0 88 57 151 174 151c55 0 95 -9 152 -35c30 28 76 45 141 45c59 0 103 -14 146 -36l-32 -64c-33 16 -70 25 -111 25c-74 0 -93 -28 -93 -78
v-70h294zM379 527v69c0 17 2 34 6 49c-40 15 -71 21 -111 21c-67 0 -88 -25 -88 -76v-63h193z" />
    <glyph glyph-name="f_f_l" unicode="ffl" horiz-adv-x="882" 
d="M833 70l24 -64c-25 -12 -51 -18 -78 -18c-67 0 -105 40 -105 116v555c-40 12 -71 17 -115 17c-67 0 -88 -25 -88 -76v-73h128l-10 -71h-118v-456h-92v456h-193v-456h-92v456h-84v71h84v62c0 88 57 151 174 151c55 0 95 -9 152 -35c29 28 73 45 133 45c48 0 81 -7 122 -20
l91 12v-636c0 -28 9 -42 33 -42c13 0 24 2 34 6zM379 527v72c0 16 2 32 6 46c-40 15 -71 21 -111 21c-67 0 -88 -25 -88 -76v-63h193z" />
    <glyph glyph-name="f_j" unicode="fj" horiz-adv-x="572" 
d="M480 527v-495c0 -149 -55 -194 -167 -244l-27 67c69 32 102 58 102 171v430h-202v-456h-92v456h-84v71h84v69c0 89 54 154 182 154c59 0 103 -14 146 -36l-32 -64c-33 16 -70 25 -111 25c-74 0 -93 -28 -93 -78v-70h294z" />
    <glyph glyph-name="fi" unicode="fi" horiz-adv-x="572" 
d="M276 750c59 0 103 -14 146 -36l-32 -64c-33 16 -70 25 -111 25c-74 0 -93 -28 -93 -78v-70h294v-527h-92v456h-202v-456h-92v456h-84v71h84v69c0 89 54 154 182 154z" />
    <glyph glyph-name="fl" unicode="fl" horiz-adv-x="597" 
d="M548 70l24 -64c-25 -12 -51 -18 -78 -18c-67 0 -105 40 -105 116v555c-40 12 -71 17 -115 17c-67 0 -88 -25 -88 -76v-73h128l-10 -71h-118v-456h-92v456h-84v71h84v72c0 88 57 151 174 151c48 0 81 -7 122 -20l91 12v-636c0 -28 9 -42 33 -42c13 0 24 2 34 6z" />
    <glyph glyph-name=".notdef" horiz-adv-x="666" 
d="M543 1050v-1400h-420v1400h420zM489 998h-311v-1296h311v1296zM324 451c86 0 111 -55 111 -115c0 -70 -28 -108 -95 -118v-45c0 -15 -13 -24 -25 -24c-13 0 -25 9 -25 24v84c72 4 91 24 91 77c0 39 -11 69 -61 69c-21 0 -35 -3 -52 -11c-5 -2 -9 -3 -13 -3
c-15 0 -24 10 -24 23c0 27 54 39 93 39zM315 120c20 0 35 -15 35 -35c0 -21 -15 -37 -35 -37s-35 16 -35 37c0 20 15 35 35 35z" />
    <glyph glyph-name="A" unicode="A" horiz-adv-x="573" 
d="M467 0l-52 173h-261l-52 -173h-96l221 689h120l220 -689h-100zM177 250h215l-107 360z" />
    <glyph glyph-name="Aacute" unicode="&#xc1;" horiz-adv-x="573" 
d="M407 834l-216 -79l-24 49l200 107zM467 0l-52 173h-261l-52 -173h-96l221 689h120l220 -689h-100zM177 250h215l-107 360z" />
    <glyph glyph-name="Aacute.loclHUN" horiz-adv-x="573" 
d="M411 879l-132 -145l-45 28l105 164zM467 0l-52 173h-261l-52 -173h-96l221 689h120l220 -689h-100zM177 250h215l-107 360z" />
    <glyph glyph-name="Abreve" unicode="&#x102;" horiz-adv-x="573" 
d="M285 758c-80 0 -142 49 -150 123l61 13c14 -40 42 -66 89 -66s78 26 92 66l61 -13c-8 -74 -72 -123 -153 -123zM467 0l-52 173h-261l-52 -173h-96l221 689h120l220 -689h-100zM177 250h215l-107 360z" />
    <glyph glyph-name="uni1EAE" unicode="&#x1eae;" horiz-adv-x="573" 
d="M420 1028l-136 -126l-38 35l118 145zM285 740c-80 0 -142 49 -150 123l61 13c14 -40 42 -66 89 -66s78 26 92 66l61 -13c-8 -74 -72 -123 -153 -123zM467 0l-52 173h-261l-52 -173h-96l221 689h120l220 -689h-100zM177 250h215l-107 360z" />
    <glyph glyph-name="uni1EB6" unicode="&#x1eb6;" horiz-adv-x="573" 
d="M285 758c-80 0 -142 49 -150 123l61 13c14 -40 42 -66 89 -66s78 26 92 66l61 -13c-8 -74 -72 -123 -153 -123zM567 0h-100l-52 173h-261l-52 -173h-96l221 689h120zM177 250h215l-107 360zM287 -74c38 0 64 -27 64 -62c0 -36 -26 -63 -64 -63c-39 0 -65 27 -65 63
c0 35 26 62 65 62z" />
    <glyph glyph-name="uni1EB0" unicode="&#x1eb0;" horiz-adv-x="573" 
d="M325 937l-38 -35l-136 126l56 54zM285 740c-80 0 -142 49 -150 123l61 13c14 -40 42 -66 89 -66s78 26 92 66l61 -13c-8 -74 -72 -123 -153 -123zM467 0l-52 173h-261l-52 -173h-96l221 689h120l220 -689h-100zM177 250h215l-107 360z" />
    <glyph glyph-name="uni1EB2" unicode="&#x1eb2;" horiz-adv-x="573" 
d="M278 1043c-22 0 -39 -5 -57 -13l-22 51c24 14 53 24 94 24c69 0 108 -37 108 -93c0 -50 -31 -76 -81 -84v-48h-69v84c45 6 71 12 71 43c0 25 -18 36 -44 36zM285 740c-80 0 -142 49 -150 123l61 13c14 -40 42 -66 89 -66s78 26 92 66l61 -13c-8 -74 -72 -123 -153 -123z
M467 0l-52 173h-261l-52 -173h-96l221 689h120l220 -689h-100zM177 250h215l-107 360z" />
    <glyph glyph-name="uni1EB4" unicode="&#x1eb4;" horiz-adv-x="573" 
d="M228 983c-23 0 -37 -16 -53 -46l-56 28c23 49 59 88 109 88c30 0 50 -13 69 -27c15 -11 30 -21 47 -21c20 0 35 14 53 44l56 -28c-26 -57 -64 -86 -109 -86c-28 0 -50 13 -68 26c-16 12 -31 22 -48 22zM285 810c47 0 78 26 92 66l61 -13c-8 -74 -72 -123 -153 -123
c-80 0 -142 49 -150 123l61 13c14 -40 42 -66 89 -66zM467 0l-52 173h-261l-52 -173h-96l221 689h120l220 -689h-100zM177 250h215l-107 360z" />
    <glyph glyph-name="uni01CD" unicode="&#x1cd;" horiz-adv-x="573" 
d="M318 754h-61l-136 110l40 45l126 -81l127 81l39 -45zM467 0l-52 173h-261l-52 -173h-96l221 689h120l220 -689h-100zM177 250h215l-107 360z" />
    <glyph glyph-name="Acircumflex" unicode="&#xc2;" horiz-adv-x="573" 
d="M286 840l-126 -81l-40 45l136 110h61l135 -110l-39 -45zM467 0l-52 173h-261l-52 -173h-96l221 689h120l220 -689h-100zM177 250h215l-107 360z" />
    <glyph glyph-name="uni1EA4" unicode="&#x1ea4;" horiz-adv-x="573" 
d="M552 965l-136 -126l-38 35l118 145zM285 797l-126 -81l-40 45l136 110h61l135 -110l-39 -45zM467 0l-52 173h-261l-52 -173h-96l221 689h120l220 -689h-100zM177 250h215l-107 360z" />
    <glyph glyph-name="uni1EAC" unicode="&#x1eac;" horiz-adv-x="573" 
d="M286 840l-126 -81l-40 45l136 110h61l135 -110l-39 -45zM567 0h-100l-52 173h-261l-52 -173h-96l221 689h120zM177 250h215l-107 360zM287 -74c38 0 64 -27 64 -62c0 -36 -26 -63 -64 -63c-39 0 -65 27 -65 63c0 35 26 62 65 62z" />
    <glyph glyph-name="uni1EA6" unicode="&#x1ea6;" horiz-adv-x="573" 
d="M193 874l-38 -35l-136 126l56 54zM159 716l-40 45l136 110h61l135 -110l-39 -45l-127 81zM467 0l-52 173h-261l-52 -173h-96l221 689h120l220 -689h-100zM177 250h215l-107 360z" />
    <glyph glyph-name="uni1EA8" unicode="&#x1ea8;" horiz-adv-x="573" 
d="M427 980c-22 0 -39 -5 -57 -13l-22 51c24 14 53 24 94 24c69 0 108 -37 108 -93c0 -50 -31 -76 -81 -84v-48h-69v84c45 6 71 12 71 43c0 25 -18 36 -44 36zM285 797l-126 -81l-40 45l136 110h61l135 -110l-39 -45zM467 0l-52 173h-261l-52 -173h-96l221 689h120l220 -689
h-100zM177 250h215l-107 360z" />
    <glyph glyph-name="uni1EAA" unicode="&#x1eaa;" horiz-adv-x="573" 
d="M227 968c-23 0 -37 -16 -53 -46l-56 28c23 49 59 88 109 88c30 0 50 -13 69 -27c15 -11 30 -21 47 -21c20 0 35 14 53 44l56 -28c-26 -57 -64 -86 -109 -86c-28 0 -50 13 -68 26c-16 12 -31 22 -48 22zM284 797l-126 -81l-40 45l136 110h61l135 -110l-39 -45zM467 0
l-52 173h-261l-52 -173h-96l221 689h120l220 -689h-100zM177 250h215l-107 360z" />
    <glyph glyph-name="uni0200" unicode="&#x200;" horiz-adv-x="573" 
d="M251 785l-58 -25l-106 157l78 41zM393 790l-58 -25l-96 152l78 41zM467 0l-52 173h-261l-52 -173h-96l221 689h120l220 -689h-100zM177 250h215l-107 360z" />
    <glyph glyph-name="Adieresis" unicode="&#xc4;" horiz-adv-x="573" 
d="M182 780c-33 0 -58 25 -58 57s25 57 58 57c32 0 57 -25 57 -57s-25 -57 -57 -57zM391 780c-32 0 -57 25 -57 57s25 57 57 57c33 0 58 -25 58 -57s-25 -57 -58 -57zM467 0l-52 173h-261l-52 -173h-96l221 689h120l220 -689h-100zM177 250h215l-107 360z" />
    <glyph glyph-name="uni01DE" unicode="&#x1de;" horiz-adv-x="573" 
d="M425 989v-69h-273v69h273zM182 746c-33 0 -58 25 -58 57s25 57 58 57c32 0 57 -25 57 -57s-25 -57 -57 -57zM334 803c0 32 25 57 57 57c33 0 58 -25 58 -57s-25 -57 -58 -57c-32 0 -57 25 -57 57zM467 0l-52 173h-261l-52 -173h-96l221 689h120l220 -689h-100zM177 250
h215l-107 360z" />
    <glyph glyph-name="uni0226" unicode="&#x226;" horiz-adv-x="573" 
d="M286 781c-38 0 -64 27 -64 62c0 36 26 63 64 63c39 0 65 -27 65 -63c0 -35 -26 -62 -65 -62zM467 0l-52 173h-261l-52 -173h-96l221 689h120l220 -689h-100zM177 250h215l-107 360z" />
    <glyph glyph-name="uni1EA0" unicode="&#x1ea0;" horiz-adv-x="573" 
d="M567 0h-100l-52 173h-261l-52 -173h-96l221 689h120zM177 250h215l-107 360zM287 -74c38 0 64 -27 64 -62c0 -36 -26 -63 -64 -63c-39 0 -65 27 -65 63c0 35 26 62 65 62z" />
    <glyph glyph-name="uni01E0" unicode="&#x1e0;" horiz-adv-x="573" 
d="M428 1009v-69h-273v69h273zM225 803c0 36 26 63 64 63c39 0 65 -27 65 -63c0 -35 -26 -62 -65 -62c-38 0 -64 27 -64 62zM467 0l-52 173h-261l-52 -173h-96l221 689h120l220 -689h-100zM177 250h215l-107 360z" />
    <glyph glyph-name="Agrave" unicode="&#xc0;" horiz-adv-x="573" 
d="M397 804l-24 -49l-216 79l39 77zM467 0l-52 173h-261l-52 -173h-96l221 689h120l220 -689h-100zM177 250h215l-107 360z" />
    <glyph glyph-name="uni1EA2" unicode="&#x1ea2;" horiz-adv-x="573" 
d="M279 926c-22 0 -39 -5 -57 -13l-22 51c24 14 53 24 94 24c69 0 108 -37 108 -93c0 -50 -31 -76 -81 -84v-48h-69v84c45 6 71 12 71 43c0 25 -18 36 -44 36zM467 0l-52 173h-261l-52 -173h-96l221 689h120l220 -689h-100zM177 250h215l-107 360z" />
    <glyph glyph-name="uni0202" unicode="&#x202;" horiz-adv-x="573" 
d="M285 852c-47 0 -75 -26 -89 -76l-61 13c8 84 70 133 150 133c81 0 145 -49 153 -133l-61 -13c-14 50 -45 76 -92 76zM467 0l-52 173h-261l-52 -173h-96l221 689h120l220 -689h-100zM177 250h215l-107 360z" />
    <glyph glyph-name="uni2C6D" unicode="&#x2c6d;" horiz-adv-x="690" 
d="M584 142c0 -52 13 -67 46 -82l-32 -72c-60 15 -90 37 -103 81c-39 -48 -96 -81 -171 -81c-147 0 -269 111 -269 340c0 239 117 373 274 373c68 0 123 -29 162 -71l9 59h84v-547zM333 66c69 0 113 29 156 76v410c-36 42 -82 71 -149 71c-109 0 -184 -85 -184 -295
c0 -193 78 -262 177 -262z" />
    <glyph glyph-name="Amacron" unicode="&#x100;" horiz-adv-x="573" 
d="M423 862v-69h-273v69h273zM467 0l-52 173h-261l-52 -173h-96l221 689h120l220 -689h-100zM177 250h215l-107 360z" />
    <glyph glyph-name="Aogonek" unicode="&#x104;" horiz-adv-x="573" 
d="M527 0c-102 -44 -123 -78 -123 -114c0 -30 15 -48 56 -48c21 0 37 2 61 7l-9 -70c-20 -4 -37 -7 -63 -7c-77 0 -125 43 -125 101c0 64 44 111 138 147l-47 157h-261l-52 -173h-96l221 689h120l220 -689h-40zM177 250h215l-107 360z" />
    <glyph glyph-name="Aring" unicode="&#xc5;" horiz-adv-x="573" 
d="M287 750c-67 0 -114 47 -114 106s47 106 114 106s114 -47 114 -106s-47 -106 -114 -106zM287 912c-33 0 -53 -21 -53 -56s20 -56 53 -56c32 0 53 21 53 56s-20 56 -53 56zM467 0l-52 173h-261l-52 -173h-96l221 689h120l220 -689h-100zM177 250h215l-107 360z" />
    <glyph glyph-name="Aringacute" unicode="&#x1fa;" horiz-adv-x="573" 
d="M408 1027l-216 -79l-24 49l200 107zM172 836c0 59 47 106 114 106s114 -47 114 -106s-47 -106 -114 -106s-114 47 -114 106zM339 836c0 35 -20 56 -53 56s-53 -21 -53 -56s20 -56 53 -56c32 0 53 21 53 56zM467 0l-52 173h-261l-52 -173h-96l221 689h120l220 -689h-100z
M177 250h215l-107 360z" />
    <glyph glyph-name="uni023A" unicode="&#x23a;" horiz-adv-x="573" 
d="M470 0l-52 173h-139l-65 -243l-45 11l62 232h-80l-52 -173h-93l221 689h120l11 -36l26 97l45 -11l-44 -167l182 -572h-97zM173 247h77l69 259l-34 114zM298 247h98l-52 174z" />
    <glyph glyph-name="Atilde" unicode="&#xc3;" horiz-adv-x="573" 
d="M229 830c-23 0 -37 -16 -53 -46l-56 28c23 49 59 88 109 88c30 0 50 -13 69 -27c15 -11 30 -21 47 -21c20 0 35 14 53 44l56 -28c-26 -57 -64 -86 -109 -86c-28 0 -50 13 -68 26c-16 12 -31 22 -48 22zM467 0l-52 173h-261l-52 -173h-96l221 689h120l220 -689h-100z
M177 250h215l-107 360z" />
    <glyph glyph-name="AE" unicode="&#xc6;" horiz-adv-x="816" 
d="M535 76h227v-76h-304l-40 173h-268l-65 -173h-97l274 689h459l-11 -76h-309l56 -226h255v-76h-236zM179 250h221l-84 363z" />
    <glyph glyph-name="AEacute" unicode="&#x1fc;" horiz-adv-x="816" 
d="M594 834l-216 -79l-24 49l200 107zM535 76h227v-76h-304l-40 173h-268l-65 -173h-97l274 689h459l-11 -76h-309l56 -226h255v-76h-236zM179 250h221l-84 363z" />
    <glyph glyph-name="uni01E2" unicode="&#x1e2;" horiz-adv-x="816" 
d="M610 862v-69h-273v69h273zM535 76h227v-76h-304l-40 173h-268l-65 -173h-97l274 689h459l-11 -76h-309l56 -226h255v-76h-236zM179 250h221l-84 363z" />
    <glyph glyph-name="B" unicode="B" horiz-adv-x="608" 
d="M404 364c80 -14 159 -51 159 -168c0 -146 -113 -196 -273 -196h-190v689h163c170 0 270 -54 270 -174c0 -85 -62 -137 -129 -151zM273 614h-78v-217h104c77 0 137 38 137 111c0 85 -61 106 -163 106zM290 76c100 0 173 20 173 120c0 97 -72 128 -155 128h-113v-248h95z
" />
    <glyph glyph-name="uni1E02" unicode="&#x1e02;" horiz-adv-x="608" 
d="M300 781c-38 0 -64 27 -64 62c0 36 26 63 64 63c39 0 65 -27 65 -63c0 -35 -26 -62 -65 -62zM404 364c80 -14 159 -51 159 -168c0 -146 -113 -196 -273 -196h-190v689h163c170 0 270 -54 270 -174c0 -85 -62 -137 -129 -151zM273 614h-78v-217h104c77 0 137 38 137 111
c0 85 -61 106 -163 106zM290 76c100 0 173 20 173 120c0 97 -72 128 -155 128h-113v-248h95z" />
    <glyph glyph-name="uni1E04" unicode="&#x1e04;" horiz-adv-x="608" 
d="M404 364c80 -14 159 -51 159 -168c0 -146 -113 -196 -273 -196h-190v689h163c170 0 270 -54 270 -174c0 -85 -62 -137 -129 -151zM273 614h-78v-217h104c77 0 137 38 137 111c0 85 -61 106 -163 106zM290 76c100 0 173 20 173 120c0 97 -72 128 -155 128h-113v-248h95z
M310 -74c38 0 64 -27 64 -62c0 -36 -26 -63 -64 -63c-39 0 -65 27 -65 63c0 35 26 62 65 62z" />
    <glyph glyph-name="uniA7B4" unicode="&#xa7b4;" horiz-adv-x="608" 
d="M404 364c80 -14 159 -51 159 -162c0 -141 -108 -202 -243 -202c-45 0 -86 6 -125 17v-219h-95v891h163c170 0 270 -54 270 -174c0 -85 -62 -137 -129 -151zM320 76c75 0 143 30 143 126c0 91 -72 122 -155 122h-49l10 73h30c77 0 137 38 137 111c0 85 -61 106 -163 106
h-78v-524c39 -8 80 -14 125 -14z" />
    <glyph glyph-name="uni0181" unicode="&#x181;" horiz-adv-x="691" 
d="M487 364c80 -14 159 -51 159 -168c0 -146 -113 -196 -273 -196h-190v614h-32c-37 0 -54 -18 -54 -50c0 -25 7 -46 18 -73l-64 -32c-20 29 -41 63 -41 108c0 70 49 122 146 122h190c170 0 270 -54 270 -174c0 -85 -62 -137 -129 -151zM356 614h-78v-217h104
c77 0 137 38 137 111c0 85 -61 106 -163 106zM373 76c100 0 173 20 173 120c0 97 -72 128 -155 128h-113v-248h95z" />
    <glyph glyph-name="uni0181.ss02" horiz-adv-x="579" 
d="M286 430c161 0 263 -68 263 -210c0 -159 -111 -220 -267 -220h-182v689h375l-12 -78h-268v-181h91zM290 76c91 0 158 27 158 142c0 102 -60 138 -161 138h-92v-280h95z" />
    <glyph glyph-name="uni0243" unicode="&#x243;" horiz-adv-x="620" 
d="M416 364c80 -14 159 -51 159 -168c0 -146 -113 -196 -273 -196h-190v168h-92v70h92v451h163c170 0 270 -54 270 -174c0 -85 -62 -137 -129 -151zM285 614h-78v-217h104c77 0 137 38 137 111c0 85 -61 106 -163 106zM302 76c100 0 173 20 173 120c0 97 -72 128 -155 128
h-113v-86h157v-70h-157v-92h95z" />
    <glyph glyph-name="uni0182" unicode="&#x182;" horiz-adv-x="579" 
d="M286 430c161 0 263 -68 263 -210c0 -159 -111 -220 -267 -220h-182v689h375l-12 -78h-268v-181h91zM290 76c91 0 158 27 158 142c0 102 -60 138 -161 138h-92v-280h95z" />
    <glyph glyph-name="C" unicode="C" 
d="M341 701c87 0 136 -24 191 -68l-52 -61c-43 35 -85 51 -133 51c-104 0 -191 -70 -191 -278c0 -199 83 -277 190 -277c65 0 108 28 147 57l47 -60c-38 -39 -104 -77 -197 -77c-167 0 -288 125 -288 357c0 233 130 356 286 356z" />
    <glyph glyph-name="Cacute" unicode="&#x106;" 
d="M427 911l40 -77l-216 -79l-24 49zM341 701c87 0 136 -24 191 -68l-52 -61c-43 35 -85 51 -133 51c-104 0 -191 -70 -191 -278c0 -199 83 -277 190 -277c65 0 108 28 147 57l47 -60c-38 -39 -104 -77 -197 -77c-167 0 -288 125 -288 357c0 233 130 356 286 356z" />
    <glyph glyph-name="Cacute.loclPLK" 
d="M399 926l72 -47l-132 -145l-45 28zM341 701c87 0 136 -24 191 -68l-52 -61c-43 35 -85 51 -133 51c-104 0 -191 -70 -191 -278c0 -199 83 -277 190 -277c65 0 108 28 147 57l47 -60c-38 -39 -104 -77 -197 -77c-167 0 -288 125 -288 357c0 233 130 356 286 356z" />
    <glyph glyph-name="Ccaron" unicode="&#x10c;" 
d="M474 909l39 -45l-135 -110h-61l-136 110l40 45l126 -81zM341 701c87 0 136 -24 191 -68l-52 -61c-43 35 -85 51 -133 51c-104 0 -191 -70 -191 -278c0 -199 83 -277 190 -277c65 0 108 28 147 57l47 -60c-38 -39 -104 -77 -197 -77c-167 0 -288 125 -288 357
c0 233 130 356 286 356z" />
    <glyph glyph-name="Ccedilla" unicode="&#xc7;" 
d="M540 65c-33 -34 -88 -68 -164 -75v-46c68 -6 93 -44 93 -85c0 -66 -56 -100 -124 -100c-38 0 -71 9 -91 24l25 52c19 -10 37 -16 63 -16c28 0 50 11 50 40c0 27 -25 42 -89 42l11 88c-152 14 -259 138 -259 356c0 233 130 356 286 356c87 0 136 -24 191 -68l-52 -61
c-43 35 -85 51 -133 51c-104 0 -191 -70 -191 -278c0 -199 83 -277 190 -277c65 0 108 28 147 57z" />
    <glyph glyph-name="Ccircumflex" unicode="&#x108;" 
d="M220 759l-40 45l136 110h61l135 -110l-39 -45l-127 81zM341 701c87 0 136 -24 191 -68l-52 -61c-43 35 -85 51 -133 51c-104 0 -191 -70 -191 -278c0 -199 83 -277 190 -277c65 0 108 28 147 57l47 -60c-38 -39 -104 -77 -197 -77c-167 0 -288 125 -288 357
c0 233 130 356 286 356z" />
    <glyph glyph-name="Cdotaccent" unicode="&#x10a;" 
d="M346 906c39 0 65 -27 65 -63c0 -35 -26 -62 -65 -62c-38 0 -64 27 -64 62c0 36 26 63 64 63zM341 701c87 0 136 -24 191 -68l-52 -61c-43 35 -85 51 -133 51c-104 0 -191 -70 -191 -278c0 -199 83 -277 190 -277c65 0 108 28 147 57l47 -60c-38 -39 -104 -77 -197 -77
c-167 0 -288 125 -288 357c0 233 130 356 286 356z" />
    <glyph glyph-name="uniA7B3" unicode="&#xa7b3;" horiz-adv-x="532" 
d="M321 312l206 -442h-108l-155 375l-157 -375h-102l203 437l-185 382h108l135 -319l136 319h102z" />
    <glyph glyph-name="uni0187" unicode="&#x187;" 
d="M591 832c53 0 90 -19 115 -38l-36 -59c-23 14 -41 23 -74 23c-39 0 -64 -21 -64 -74v-51l-44 -52c-46 27 -93 42 -141 42c-104 0 -191 -70 -191 -278c0 -199 83 -277 190 -277c65 0 107 29 146 58l48 -61c-37 -39 -104 -77 -197 -77c-167 0 -288 125 -288 357
c0 233 130 356 286 356c39 0 72 -7 99 -18c2 95 57 149 151 149z" />
    <glyph glyph-name="uni023B" unicode="&#x23b;" 
d="M493 125l47 -60c-38 -39 -104 -77 -197 -77c-27 0 -52 3 -76 9l-18 -67l-45 11l19 72c-102 47 -168 160 -168 332c0 233 130 356 286 356c24 0 45 -2 64 -5l14 54l45 -11l-15 -56c30 -11 56 -28 83 -50l-52 -61c-17 14 -34 25 -52 33l-140 -528c18 -6 38 -9 58 -9
c65 0 108 28 147 57zM156 345c0 -130 35 -208 90 -247l138 522c-12 2 -24 3 -37 3c-104 0 -191 -70 -191 -278z" />
    <glyph glyph-name="D" unicode="D" horiz-adv-x="644" 
d="M244 689c176 0 345 -55 345 -341c0 -281 -175 -348 -324 -348h-165v689h144zM265 613h-70v-538h77c108 0 216 46 216 273c0 233 -113 265 -223 265z" />
    <glyph glyph-name="uni01F1" unicode="&#x1f1;" horiz-adv-x="1141" 
d="M244 689c176 0 345 -55 345 -341c0 -281 -175 -348 -324 -348h-165v689h144zM1096 689v-77l-341 -531h341l-11 -81h-436v76l344 533h-308v80h411zM265 613h-70v-538h77c108 0 216 46 216 273c0 233 -113 265 -223 265z" />
    <glyph glyph-name="uni01C4" unicode="&#x1c4;" horiz-adv-x="1141" 
d="M1018 909l39 -45l-135 -110h-61l-136 110l40 45l126 -81zM244 689c176 0 345 -55 345 -341c0 -281 -175 -348 -324 -348h-165v689h144zM1096 689v-77l-341 -531h341l-11 -81h-436v76l344 533h-308v80h411zM265 613h-70v-538h77c108 0 216 46 216 273
c0 233 -113 265 -223 265z" />
    <glyph glyph-name="uni0189" unicode="&#x189;" horiz-adv-x="656" 
d="M256 689c176 0 345 -55 345 -341c0 -281 -175 -348 -324 -348h-165v318h-92v70h92v301h144zM284 75c108 0 216 46 216 273c0 233 -113 265 -223 265h-70v-225h157v-70h-157v-243h77z" />
    <glyph glyph-name="Eth" unicode="&#xd0;" horiz-adv-x="656" 
d="M256 689c176 0 345 -55 345 -341c0 -281 -175 -348 -324 -348h-165v318h-92v70h92v301h144zM284 75c108 0 216 46 216 273c0 233 -113 265 -223 265h-70v-225h157v-70h-157v-243h77z" />
    <glyph glyph-name="Dcaron" unicode="&#x10e;" horiz-adv-x="644" 
d="M430 909l39 -45l-135 -110h-61l-136 110l40 45l126 -81zM244 689c176 0 345 -55 345 -341c0 -281 -175 -348 -324 -348h-165v689h144zM265 613h-70v-538h77c108 0 216 46 216 273c0 233 -113 265 -223 265z" />
    <glyph glyph-name="uni1E12" unicode="&#x1e12;" horiz-adv-x="644" 
d="M244 689c176 0 345 -55 345 -341c0 -281 -175 -348 -324 -348h-165v689h144zM265 613h-70v-538h77c108 0 216 46 216 273c0 233 -113 265 -223 265zM173 -226l-39 45l135 113h61l136 -113l-40 -45l-126 84z" />
    <glyph glyph-name="Dcroat" unicode="&#x110;" horiz-adv-x="656" 
d="M256 689c176 0 345 -55 345 -341c0 -281 -175 -348 -324 -348h-165v318h-92v70h92v301h144zM284 75c108 0 216 46 216 273c0 233 -113 265 -223 265h-70v-225h157v-70h-157v-243h77z" />
    <glyph glyph-name="uni1E0A" unicode="&#x1e0a;" horiz-adv-x="644" 
d="M302 906c39 0 65 -27 65 -63c0 -35 -26 -62 -65 -62c-38 0 -64 27 -64 62c0 36 26 63 64 63zM244 689c176 0 345 -55 345 -341c0 -281 -175 -348 -324 -348h-165v689h144zM265 613h-70v-538h77c108 0 216 46 216 273c0 233 -113 265 -223 265z" />
    <glyph glyph-name="uni1E0C" unicode="&#x1e0c;" horiz-adv-x="644" 
d="M244 689c176 0 345 -55 345 -341c0 -281 -175 -348 -324 -348h-165v689h144zM265 613h-70v-538h77c108 0 216 46 216 273c0 233 -113 265 -223 265zM300 -199c-39 0 -65 27 -65 63c0 35 26 62 65 62c38 0 64 -27 64 -62c0 -36 -26 -63 -64 -63z" />
    <glyph glyph-name="uni018A" unicode="&#x18a;" horiz-adv-x="727" 
d="M327 689c176 0 345 -55 345 -341c0 -281 -175 -348 -324 -348h-165v614h-32c-37 0 -54 -18 -54 -50c0 -25 7 -46 18 -73l-64 -32c-20 29 -41 63 -41 108c0 70 49 122 146 122h171zM355 75c108 0 216 46 216 273c0 233 -113 265 -223 265h-70v-538h77z" />
    <glyph glyph-name="uni1E0E" unicode="&#x1e0e;" horiz-adv-x="644" 
d="M244 689c176 0 345 -55 345 -341c0 -281 -175 -348 -324 -348h-165v689h144zM265 613h-70v-538h77c108 0 216 46 216 273c0 233 -113 265 -223 265zM436 -173h-273v69h273v-69z" />
    <glyph glyph-name="uni018B" unicode="&#x18b;" horiz-adv-x="579" 
d="M479 689v-689h-192c-147 0 -257 58 -257 212c0 143 102 218 263 218h91v181h-275v78h370zM289 76h95v280h-92c-101 0 -161 -39 -161 -144c0 -112 67 -136 158 -136z" />
    <glyph glyph-name="uni01F2" unicode="&#x1f2;" horiz-adv-x="1071" 
d="M244 689c176 0 345 -55 345 -341c0 -281 -175 -348 -324 -348h-165v689h144zM265 613h-70v-538h77c108 0 216 46 216 273c0 233 -113 265 -223 265zM1043 527v-70l-275 -380h278l-11 -77h-371v69l274 380h-251v78h356z" />
    <glyph glyph-name="uni01C5" unicode="&#x1c5;" horiz-adv-x="1071" 
d="M985 785l39 -45l-135 -113h-61l-136 113l40 45l126 -84zM244 689c176 0 345 -55 345 -341c0 -281 -175 -348 -324 -348h-165v689h144zM265 613h-70v-538h77c108 0 216 46 216 273c0 233 -113 265 -223 265zM1043 527v-70l-275 -380h278l-11 -77h-371v69l274 380h-251v78
h356z" />
    <glyph glyph-name="E" unicode="E" horiz-adv-x="535" 
d="M473 689l-11 -76h-267v-225h232v-76h-232v-236h286v-76h-381v689h373z" />
    <glyph glyph-name="Eacute" unicode="&#xc9;" horiz-adv-x="535" 
d="M370 911l40 -77l-216 -79l-24 49zM473 689l-11 -76h-267v-225h232v-76h-232v-236h286v-76h-381v689h373z" />
    <glyph glyph-name="Eacute.loclHUN" horiz-adv-x="535" 
d="M342 926l72 -47l-132 -145l-45 28zM473 689l-11 -76h-267v-225h232v-76h-232v-236h286v-76h-381v689h373z" />
    <glyph glyph-name="Ebreve" unicode="&#x114;" horiz-adv-x="535" 
d="M288 758c-80 0 -142 49 -150 123l61 13c14 -40 42 -66 89 -66s78 26 92 66l61 -13c-8 -74 -72 -123 -153 -123zM473 689l-11 -76h-267v-225h232v-76h-232v-236h286v-76h-381v689h373z" />
    <glyph glyph-name="Ecaron" unicode="&#x11a;" horiz-adv-x="535" 
d="M417 909l39 -45l-135 -110h-61l-136 110l40 45l126 -81zM473 689l-11 -76h-267v-225h232v-76h-232v-236h286v-76h-381v689h373z" />
    <glyph glyph-name="uni0228" unicode="&#x228;" horiz-adv-x="535" 
d="M481 0h-160v-56c68 -6 93 -44 93 -85c0 -66 -56 -100 -124 -100c-38 0 -71 9 -91 24l25 52c19 -10 37 -16 63 -16c28 0 50 11 50 40c0 27 -25 42 -89 42l12 99h-160v689h373l-11 -76h-267v-225h232v-76h-232v-236h286v-76z" />
    <glyph glyph-name="Ecircumflex" unicode="&#xca;" horiz-adv-x="535" 
d="M163 759l-40 45l136 110h61l135 -110l-39 -45l-127 81zM473 689l-11 -76h-267v-225h232v-76h-232v-236h286v-76h-381v689h373z" />
    <glyph glyph-name="uni1EBE" unicode="&#x1ebe;" horiz-adv-x="535" 
d="M499 1019l56 -54l-136 -126l-38 35zM162 716l-40 45l136 110h61l135 -110l-39 -45l-127 81zM473 689l-11 -76h-267v-225h232v-76h-232v-236h286v-76h-381v689h373z" />
    <glyph glyph-name="uni1EC6" unicode="&#x1ec6;" horiz-adv-x="535" 
d="M163 759l-40 45l136 110h61l135 -110l-39 -45l-127 81zM473 689l-11 -76h-267v-225h232v-76h-232v-236h286v-76h-381v689h373zM291 -199c-39 0 -65 27 -65 63c0 35 26 62 65 62c38 0 64 -27 64 -62c0 -36 -26 -63 -64 -63z" />
    <glyph glyph-name="uni1EC0" unicode="&#x1ec0;" horiz-adv-x="535" 
d="M78 1019l118 -145l-38 -35l-136 126zM162 716l-40 45l136 110h61l135 -110l-39 -45l-127 81zM473 689l-11 -76h-267v-225h232v-76h-232v-236h286v-76h-381v689h373z" />
    <glyph glyph-name="uni1EC2" unicode="&#x1ec2;" horiz-adv-x="535" 
d="M403 817v84c45 6 71 12 71 43c0 25 -18 36 -44 36c-22 0 -39 -5 -57 -13l-22 51c24 14 53 24 94 24c69 0 108 -37 108 -93c0 -50 -31 -76 -81 -84v-48h-69zM162 716l-40 45l136 110h61l135 -110l-39 -45l-127 81zM473 689l-11 -76h-267v-225h232v-76h-232v-236h286v-76
h-381v689h373z" />
    <glyph glyph-name="uni1EC4" unicode="&#x1ec4;" horiz-adv-x="535" 
d="M346 920c-28 0 -50 13 -68 26c-16 12 -31 22 -48 22c-23 0 -37 -16 -53 -46l-56 28c23 49 59 88 109 88c30 0 50 -13 69 -27c15 -11 30 -21 47 -21c20 0 35 14 53 44l56 -28c-26 -57 -64 -86 -109 -86zM161 716l-40 45l136 110h61l135 -110l-39 -45l-127 81zM473 689
l-11 -76h-267v-225h232v-76h-232v-236h286v-76h-381v689h373z" />
    <glyph glyph-name="uni0204" unicode="&#x204;" horiz-adv-x="535" 
d="M168 958l86 -173l-58 -25l-106 157zM320 958l76 -168l-58 -25l-96 152zM473 689l-11 -76h-267v-225h232v-76h-232v-236h286v-76h-381v689h373z" />
    <glyph glyph-name="Edieresis" unicode="&#xcb;" horiz-adv-x="535" 
d="M185 894c32 0 57 -25 57 -57s-25 -57 -57 -57c-33 0 -58 25 -58 57s25 57 58 57zM394 894c33 0 58 -25 58 -57s-25 -57 -58 -57c-32 0 -57 25 -57 57s25 57 57 57zM473 689l-11 -76h-267v-225h232v-76h-232v-236h286v-76h-381v689h373z" />
    <glyph glyph-name="Edotaccent" unicode="&#x116;" horiz-adv-x="535" 
d="M289 906c39 0 65 -27 65 -63c0 -35 -26 -62 -65 -62c-38 0 -64 27 -64 62c0 36 26 63 64 63zM473 689l-11 -76h-267v-225h232v-76h-232v-236h286v-76h-381v689h373z" />
    <glyph glyph-name="uni1EB8" unicode="&#x1eb8;" horiz-adv-x="535" 
d="M473 689l-11 -76h-267v-225h232v-76h-232v-236h286v-76h-381v689h373zM291 -199c-39 0 -65 27 -65 63c0 35 26 62 65 62c38 0 64 -27 64 -62c0 -36 -26 -63 -64 -63z" />
    <glyph glyph-name="Egrave" unicode="&#xc8;" horiz-adv-x="535" 
d="M199 911l201 -107l-24 -49l-216 79zM473 689l-11 -76h-267v-225h232v-76h-232v-236h286v-76h-381v689h373z" />
    <glyph glyph-name="uni1EBA" unicode="&#x1eba;" horiz-adv-x="535" 
d="M255 763v84c45 6 71 12 71 43c0 25 -18 36 -44 36c-22 0 -39 -5 -57 -13l-22 51c24 14 53 24 94 24c69 0 108 -37 108 -93c0 -50 -31 -76 -81 -84v-48h-69zM473 689l-11 -76h-267v-225h232v-76h-232v-236h286v-76h-381v689h373z" />
    <glyph glyph-name="uni0206" unicode="&#x206;" horiz-adv-x="535" 
d="M288 922c81 0 145 -49 153 -133l-61 -13c-14 50 -45 76 -92 76s-75 -26 -89 -76l-61 13c8 84 70 133 150 133zM473 689l-11 -76h-267v-225h232v-76h-232v-236h286v-76h-381v689h373z" />
    <glyph glyph-name="Emacron" unicode="&#x112;" horiz-adv-x="535" 
d="M426 793h-273v69h273v-69zM473 689l-11 -76h-267v-225h232v-76h-232v-236h286v-76h-381v689h373z" />
    <glyph glyph-name="Eogonek" unicode="&#x118;" horiz-adv-x="535" 
d="M195 76h286v-76h-40c-102 -44 -123 -78 -123 -114c0 -30 15 -48 56 -48c21 0 37 2 61 7l-9 -70c-20 -4 -37 -7 -63 -7c-77 0 -125 43 -125 101c0 55 33 97 101 131h-239v689h373l-11 -76h-267v-225h232v-76h-232v-236z" />
    <glyph glyph-name="uni0190" unicode="&#x190;" horiz-adv-x="521" 
d="M279 701c84 0 155 -29 215 -85l-52 -57c-47 42 -99 64 -156 64c-85 0 -119 -48 -119 -106c0 -71 52 -114 131 -114h66l-13 -78h-52c-101 0 -152 -46 -152 -126c0 -81 54 -131 149 -131c68 0 119 25 159 67l56 -54c-57 -63 -135 -93 -220 -93c-142 0 -246 84 -246 210
c0 107 74 162 158 171c-80 18 -135 69 -135 156c0 98 73 176 211 176z" />
    <glyph glyph-name="uni018E" unicode="&#x18e;" horiz-adv-x="535" 
d="M60 689h375v-689h-381v76h286v236h-232v76h232v225h-280v76z" />
    <glyph glyph-name="uni01A9" unicode="&#x1a9;" horiz-adv-x="503" 
d="M463 689v-78h-316l200 -239v-62l-200 -232h316v-78h-423v78l222 261l-222 272v78h423z" />
    <glyph glyph-name="uni0246" unicode="&#x246;" horiz-adv-x="535" 
d="M481 76v-76h-248l-19 -70l-45 11l16 59h-85v689h268l16 61l45 -11l-13 -50h57l-11 -76h-66l-60 -225h91v-76h-111l-63 -236h228zM195 613v-225h93l60 225h-153zM195 76h10l63 236h-73v-236z" />
    <glyph glyph-name="uni1EBC" unicode="&#x1ebc;" horiz-adv-x="535" 
d="M348 782c-28 0 -50 13 -68 26c-16 12 -31 22 -48 22c-23 0 -37 -16 -53 -46l-56 28c23 49 59 88 109 88c30 0 50 -13 69 -27c15 -11 30 -21 47 -21c20 0 35 14 53 44l56 -28c-26 -57 -64 -86 -109 -86zM473 689l-11 -76h-267v-225h232v-76h-232v-236h286v-76h-381v689
h373z" />
    <glyph glyph-name="uni01B7" unicode="&#x1b7;" horiz-adv-x="516" 
d="M235 397c159 0 236 -75 236 -199c0 -123 -93 -210 -245 -210c-97 0 -164 29 -216 90l55 54c43 -46 89 -66 158 -66c98 0 149 51 149 134c0 92 -50 128 -157 128h-88v67l208 216h-294v78h406v-77l-213 -215h1z" />
    <glyph glyph-name="uni01EE" unicode="&#x1ee;" horiz-adv-x="516" 
d="M275 754h-61l-136 110l40 45l126 -81l127 81l39 -45zM235 397c159 0 236 -75 236 -199c0 -123 -93 -210 -245 -210c-97 0 -164 29 -216 90l55 54c43 -46 89 -66 158 -66c98 0 149 51 149 134c0 92 -50 128 -157 128h-88v67l208 216h-294v78h406v-77l-213 -215h1z" />
    <glyph glyph-name="uni01B8" unicode="&#x1b8;" horiz-adv-x="516" 
d="M451 132l55 -54c-52 -61 -119 -90 -223 -90c-143 0 -238 84 -238 203c0 121 81 206 236 206h1l-213 215v77h406v-78h-294l208 -216v-67h-88c-107 0 -157 -46 -157 -135c0 -76 51 -127 142 -127c76 0 122 20 165 66z" />
    <glyph glyph-name="F" unicode="F" horiz-adv-x="491" 
d="M100 0v689h366l-11 -76h-260v-235h225v-75h-225v-303h-95z" />
    <glyph glyph-name="uni1E1E" unicode="&#x1e1e;" horiz-adv-x="491" 
d="M292 906c39 0 65 -27 65 -63c0 -35 -26 -62 -65 -62c-38 0 -64 27 -64 62c0 36 26 63 64 63zM100 0v689h366l-11 -76h-260v-235h225v-75h-225v-303h-95z" />
    <glyph glyph-name="uni0191" unicode="&#x191;" horiz-adv-x="491" 
d="M455 613h-260v-235h225v-75h-225v-360c0 -104 -59 -156 -151 -156c-53 0 -90 19 -115 38l37 60c22 -13 40 -22 73 -22c39 0 61 23 61 74v752h366z" />
    <glyph glyph-name="G" unicode="G" horiz-adv-x="631" 
d="M354 701c91 0 148 -27 207 -76l-56 -58c-48 39 -89 56 -151 56c-99 0 -198 -75 -198 -278c0 -198 67 -279 188 -279c46 0 92 9 131 31v208h-122l-11 77h227v-333c-65 -37 -137 -61 -225 -61c-178 0 -289 119 -289 357c0 232 140 356 299 356z" />
    <glyph glyph-name="uni01F4" unicode="&#x1f4;" horiz-adv-x="631" 
d="M435 911l40 -77l-216 -79l-24 49zM354 701c91 0 148 -27 207 -76l-56 -58c-48 39 -89 56 -151 56c-99 0 -198 -75 -198 -278c0 -198 67 -279 188 -279c46 0 92 9 131 31v208h-122l-11 77h227v-333c-65 -37 -137 -61 -225 -61c-178 0 -289 119 -289 357
c0 232 140 356 299 356z" />
    <glyph glyph-name="Gbreve" unicode="&#x11e;" horiz-adv-x="631" 
d="M353 758c-80 0 -142 49 -150 123l61 13c14 -40 42 -66 89 -66s78 26 92 66l61 -13c-8 -74 -72 -123 -153 -123zM354 701c91 0 148 -27 207 -76l-56 -58c-48 39 -89 56 -151 56c-99 0 -198 -75 -198 -278c0 -198 67 -279 188 -279c46 0 92 9 131 31v208h-122l-11 77h227
v-333c-65 -37 -137 -61 -225 -61c-178 0 -289 119 -289 357c0 232 140 356 299 356z" />
    <glyph glyph-name="Gcaron" unicode="&#x1e6;" horiz-adv-x="631" 
d="M482 909l39 -45l-135 -110h-61l-136 110l40 45l126 -81zM354 701c91 0 148 -27 207 -76l-56 -58c-48 39 -89 56 -151 56c-99 0 -198 -75 -198 -278c0 -198 67 -279 188 -279c46 0 92 9 131 31v208h-122l-11 77h227v-333c-65 -37 -137 -61 -225 -61
c-178 0 -289 119 -289 357c0 232 140 356 299 356z" />
    <glyph glyph-name="Gcircumflex" unicode="&#x11c;" horiz-adv-x="631" 
d="M228 759l-40 45l136 110h61l135 -110l-39 -45l-127 81zM354 701c91 0 148 -27 207 -76l-56 -58c-48 39 -89 56 -151 56c-99 0 -198 -75 -198 -278c0 -198 67 -279 188 -279c46 0 92 9 131 31v208h-122l-11 77h227v-333c-65 -37 -137 -61 -225 -61
c-178 0 -289 119 -289 357c0 232 140 356 299 356z" />
    <glyph glyph-name="uni0122" unicode="&#x122;" horiz-adv-x="631" 
d="M354 701c91 0 148 -27 207 -76l-56 -58c-48 39 -89 56 -151 56c-99 0 -198 -75 -198 -278c0 -198 67 -279 188 -279c46 0 92 9 131 31v208h-122l-11 77h227v-333c-65 -37 -137 -61 -225 -61c-178 0 -289 119 -289 357c0 232 140 356 299 356zM346 -77c32 0 57 -24 57 -56
c0 -17 -5 -33 -26 -77l-41 -86h-53l29 116c-14 12 -24 28 -24 47c0 32 26 56 58 56z" />
    <glyph glyph-name="Gdotaccent" unicode="&#x120;" horiz-adv-x="631" 
d="M354 906c39 0 65 -27 65 -63c0 -35 -26 -62 -65 -62c-38 0 -64 27 -64 62c0 36 26 63 64 63zM354 701c91 0 148 -27 207 -76l-56 -58c-48 39 -89 56 -151 56c-99 0 -198 -75 -198 -278c0 -198 67 -279 188 -279c46 0 92 9 131 31v208h-122l-11 77h227v-333
c-65 -37 -137 -61 -225 -61c-178 0 -289 119 -289 357c0 232 140 356 299 356z" />
    <glyph glyph-name="uni0193" unicode="&#x193;" horiz-adv-x="589" 
d="M620 832c53 0 90 -19 115 -38l-36 -59c-23 14 -41 23 -74 23c-39 0 -64 -21 -64 -74v-59l-49 -52c-50 32 -98 50 -158 50c-99 0 -198 -75 -198 -278c0 -198 67 -279 188 -279c46 0 92 9 131 32v207h-122l-11 77h227v-333c-63 -37 -135 -61 -232 -61
c-171 0 -282 119 -282 357c0 232 143 356 287 356c53 0 92 -8 127 -27v2c0 100 55 156 151 156z" />
    <glyph glyph-name="uni0241" unicode="&#x241;" horiz-adv-x="466" 
d="M150 0v319l72 19c76 21 124 57 124 149c0 82 -44 136 -126 136c-60 0 -109 -22 -158 -64l-52 57c64 56 129 85 214 85c137 0 222 -87 222 -209c0 -140 -90 -186 -179 -213l-22 -6v-273h-95z" />
    <glyph glyph-name="uni01E4" unicode="&#x1e4;" horiz-adv-x="641" 
d="M636 247v-78h-67v-120c-63 -37 -135 -61 -227 -61c-176 0 -287 119 -287 357c0 232 142 356 297 356c93 0 150 -27 209 -76l-56 -58c-48 39 -89 56 -151 56c-99 0 -198 -75 -198 -278c0 -198 67 -279 188 -279c46 0 92 9 131 29v74h-122v78h122v58h-122l-11 77h227v-135
h67z" />
    <glyph glyph-name="uni021C" unicode="&#x21c;" horiz-adv-x="504" 
d="M228 701c139 0 208 -80 208 -182c0 -92 -55 -142 -135 -160c84 -9 158 -57 158 -163c0 -134 -114 -248 -392 -298l-9 80c235 50 299 125 299 219c0 79 -51 118 -152 118h-66l13 78h54c79 0 131 43 131 119c0 63 -34 111 -117 111c-57 0 -109 -22 -160 -64l-50 57
c63 56 134 85 218 85z" />
    <glyph glyph-name="H" unicode="H" horiz-adv-x="680" 
d="M485 0v323h-290v-323h-95v689h95v-288h290v288h95v-689h-95z" />
    <glyph glyph-name="Hbar" unicode="&#x126;" horiz-adv-x="688" 
d="M653 577v-69h-69v-508h-95v323h-290v-323h-95v508h-69v69h69v112h95v-112h290v112h95v-112h69zM489 401v107h-290v-107h290z" />
    <glyph glyph-name="uni021E" unicode="&#x21e;" horiz-adv-x="680" 
d="M467 909l39 -45l-135 -110h-61l-136 110l40 45l126 -81zM485 0v323h-290v-323h-95v689h95v-288h290v288h95v-689h-95z" />
    <glyph glyph-name="Hcircumflex" unicode="&#x124;" horiz-adv-x="680" 
d="M213 759l-40 45l136 110h61l135 -110l-39 -45l-127 81zM485 0v323h-290v-323h-95v689h95v-288h290v288h95v-689h-95z" />
    <glyph glyph-name="uni1E24" unicode="&#x1e24;" horiz-adv-x="680" 
d="M485 0v323h-290v-323h-95v689h95v-288h290v288h95v-689h-95zM340 -199c-39 0 -65 27 -65 63c0 35 26 62 65 62c38 0 64 -27 64 -62c0 -36 -26 -63 -64 -63z" />
    <glyph glyph-name="uniA7AA" unicode="&#xa7aa;" horiz-adv-x="763" 
d="M568 689h95v-689h-95v323h-290v-323h-95v614h-32c-37 0 -54 -18 -54 -50c0 -25 7 -46 18 -73l-64 -32c-20 29 -41 63 -41 108c0 70 49 122 146 122h122v-288h290v288z" />
    <glyph glyph-name="uniA78D" unicode="&#xa78d;" horiz-adv-x="612" 
d="M417 689h95v-689h-95v278c-57 -42 -104 -61 -175 -61c-122 0 -202 80 -202 207v265h95v-258c0 -92 47 -133 131 -133c70 0 118 26 151 58v333z" />
    <glyph glyph-name="uniA78D.ss02" horiz-adv-x="601" 
d="M406 0v268h-358v421h95v-343h263v343h95v-689h-95z" />
    <glyph glyph-name="uni01F6" unicode="&#x1f6;" horiz-adv-x="969" 
d="M873 527c16 -87 26 -169 26 -272c0 -189 -120 -267 -232 -267c-98 0 -182 62 -182 175v160h-290v-323h-95v689h95v-288h290v288h95v-518c0 -74 33 -109 91 -109c59 0 135 44 135 201c0 75 -7 165 -26 264h93z" />
    <glyph glyph-name="I" unicode="I" horiz-adv-x="295" 
d="M195 689v-689h-95v689h95z" />
    <glyph glyph-name="IJ" unicode="&#x132;" horiz-adv-x="600" 
d="M195 689v-689h-95v689h95zM505 689v-593c0 -144 -69 -198 -180 -233l-25 69c91 36 110 76 110 168v589h95z" />
    <glyph glyph-name="Iacute" unicode="&#xcd;" horiz-adv-x="295" 
d="M227 911l40 -77l-216 -79l-24 49zM195 689v-689h-95v689h95z" />
    <glyph glyph-name="Iacute.loclHUN" horiz-adv-x="295" 
d="M199 926l72 -47l-132 -145l-45 28zM195 689v-689h-95v689h95z" />
    <glyph glyph-name="Ibreve" unicode="&#x12c;" horiz-adv-x="295" 
d="M145 758c-80 0 -142 49 -150 123l61 13c14 -40 42 -66 89 -66s78 26 92 66l61 -13c-8 -74 -72 -123 -153 -123zM195 689v-689h-95v689h95z" />
    <glyph glyph-name="uni01CF" unicode="&#x1cf;" horiz-adv-x="295" 
d="M274 909l39 -45l-135 -110h-61l-136 110l40 45l126 -81zM195 689v-689h-95v689h95z" />
    <glyph glyph-name="Icircumflex" unicode="&#xce;" horiz-adv-x="295" 
d="M20 759l-40 45l136 110h61l135 -110l-39 -45l-127 81zM195 689v-689h-95v689h95z" />
    <glyph glyph-name="uni0208" unicode="&#x208;" horiz-adv-x="295" 
d="M25 958l86 -173l-58 -25l-106 157zM177 958l76 -168l-58 -25l-96 152zM195 689v-689h-95v689h95z" />
    <glyph glyph-name="Idieresis" unicode="&#xcf;" horiz-adv-x="295" 
d="M42 894c32 0 57 -25 57 -57s-25 -57 -57 -57c-33 0 -58 25 -58 57s25 57 58 57zM251 894c33 0 58 -25 58 -57s-25 -57 -58 -57c-32 0 -57 25 -57 57s25 57 57 57zM195 689v-689h-95v689h95z" />
    <glyph glyph-name="uni1E2E" unicode="&#x1e2e;" horiz-adv-x="295" 
d="M229 1015l56 -54l-136 -126l-38 35zM42 860c32 0 57 -25 57 -57s-25 -57 -57 -57c-33 0 -58 25 -58 57s25 57 58 57zM251 860c33 0 58 -25 58 -57s-25 -57 -58 -57c-32 0 -57 25 -57 57s25 57 57 57zM195 689v-689h-95v689h95z" />
    <glyph glyph-name="Idotaccent" unicode="&#x130;" horiz-adv-x="295" 
d="M146 906c39 0 65 -27 65 -63c0 -35 -26 -62 -65 -62c-38 0 -64 27 -64 62c0 36 26 63 64 63zM195 689v-689h-95v689h95z" />
    <glyph glyph-name="uni1ECA" unicode="&#x1eca;" horiz-adv-x="295" 
d="M195 689v-689h-95v689h95zM147 -199c-39 0 -65 27 -65 63c0 35 26 62 65 62c38 0 64 -27 64 -62c0 -36 -26 -63 -64 -63z" />
    <glyph glyph-name="Igrave" unicode="&#xcc;" horiz-adv-x="295" 
d="M56 911l201 -107l-24 -49l-216 79zM195 689v-689h-95v689h95z" />
    <glyph glyph-name="uni1EC8" unicode="&#x1ec8;" horiz-adv-x="295" 
d="M112 763v84c45 6 71 12 71 43c0 25 -18 36 -44 36c-22 0 -39 -5 -57 -13l-22 51c24 14 53 24 94 24c69 0 108 -37 108 -93c0 -50 -31 -76 -81 -84v-48h-69zM195 689v-689h-95v689h95z" />
    <glyph glyph-name="uni020A" unicode="&#x20a;" horiz-adv-x="295" 
d="M145 922c81 0 145 -49 153 -133l-61 -13c-14 50 -45 76 -92 76s-75 -26 -89 -76l-61 13c8 84 70 133 150 133zM195 689v-689h-95v689h95z" />
    <glyph glyph-name="Imacron" unicode="&#x12a;" horiz-adv-x="295" 
d="M283 793h-273v69h273v-69zM195 689v-689h-95v689h95z" />
    <glyph glyph-name="Iogonek" unicode="&#x12e;" horiz-adv-x="295" 
d="M195 0c-102 -44 -123 -78 -123 -114c0 -30 15 -48 56 -48c21 0 37 2 61 7l-9 -70c-20 -4 -37 -7 -63 -7c-77 0 -125 43 -125 101c0 56 35 100 108 134v686h95v-689z" />
    <glyph glyph-name="uni0196" unicode="&#x196;" horiz-adv-x="366" 
d="M319 86l37 -60c-25 -19 -62 -38 -115 -38c-92 0 -151 52 -151 156v545h95v-551c0 -51 22 -74 61 -74c33 0 51 9 73 22z" />
    <glyph glyph-name="uni0197" unicode="&#x197;" horiz-adv-x="313" 
d="M298 396v-74h-94v-322h-95v322h-94v74h94v293h95v-293h94z" />
    <glyph glyph-name="Itilde" unicode="&#x128;" horiz-adv-x="295" 
d="M205 782c-28 0 -50 13 -68 26c-16 12 -31 22 -48 22c-23 0 -37 -16 -53 -46l-56 28c23 49 59 88 109 88c30 0 50 -13 69 -27c15 -11 30 -21 47 -21c20 0 35 14 53 44l56 -28c-26 -57 -64 -86 -109 -86zM195 689v-689h-95v689h95z" />
    <glyph glyph-name="J" unicode="J" horiz-adv-x="305" 
d="M210 689v-593c0 -144 -69 -198 -180 -233l-25 69c91 36 110 76 110 168v589h95z" />
    <glyph glyph-name="Jcircumflex" unicode="&#x134;" horiz-adv-x="305" 
d="M36 759l-40 45l136 110h61l135 -110l-39 -45l-127 81zM210 689v-593c0 -144 -69 -198 -180 -233l-25 69c91 36 110 76 110 168v589h95z" />
    <glyph glyph-name="uniA7B2" unicode="&#xa7b2;" horiz-adv-x="329" 
d="M341 -48l-22 -50c-34 13 -58 23 -94 32c-16 -99 -76 -147 -172 -147c-89 0 -138 43 -138 109c0 74 58 117 162 117c24 0 42 -1 57 -3v679h95v-698c40 -10 74 -22 112 -39zM53 -148c60 0 78 30 81 98c-15 3 -34 5 -56 5c-60 0 -87 -19 -87 -57c0 -29 19 -46 62 -46z" />
    <glyph glyph-name="uni0248" unicode="&#x248;" horiz-adv-x="313" 
d="M303 382v-78h-93v-208c0 -144 -69 -198 -180 -233l-25 69c91 36 110 76 110 168v204h-95v78h95v307h95v-307h93z" />
    <glyph glyph-name="K" unicode="K" horiz-adv-x="589" 
d="M195 689v-689h-95v689h95zM570 689l-261 -315l280 -374h-117l-272 368l262 321h108z" />
    <glyph glyph-name="uni01E8" unicode="&#x1e8;" horiz-adv-x="589" 
d="M455 909l39 -45l-135 -110h-61l-136 110l40 45l126 -81zM195 689v-689h-95v689h95zM570 689l-261 -315l280 -374h-117l-272 368l262 321h108z" />
    <glyph glyph-name="uni0136" unicode="&#x136;" horiz-adv-x="589" 
d="M195 689v-689h-95v689h95zM570 689l-261 -315l280 -374h-117l-272 368l262 321h108zM318 -77c32 0 57 -24 57 -56c0 -17 -5 -33 -26 -77l-41 -86h-53l29 116c-14 12 -24 28 -24 47c0 32 26 56 58 56z" />
    <glyph glyph-name="uni0198" unicode="&#x198;" horiz-adv-x="617" 
d="M472 0l-272 368l169 242c44 63 81 91 148 91c47 0 76 -16 100 -35l-34 -61c-15 10 -31 19 -60 19c-31 0 -51 -8 -85 -58l-130 -192l281 -374h-117zM195 689v-689h-95v689h95z" />
    <glyph glyph-name="L" unicode="L" horiz-adv-x="498" 
d="M195 689v-606h283l-11 -83h-367v689h95z" />
    <glyph glyph-name="uni01C7" unicode="&#x1c7;" horiz-adv-x="784" 
d="M195 689v-606h283l-11 -83h-367v689h95zM689 689v-593c0 -144 -69 -198 -180 -233l-25 69c91 36 110 76 110 168v589h95z" />
    <glyph glyph-name="Lacute" unicode="&#x139;" horiz-adv-x="498" 
d="M228 911l40 -77l-216 -79l-24 49zM195 689v-606h283l-11 -83h-367v689h95z" />
    <glyph glyph-name="uni023D" unicode="&#x23d;" horiz-adv-x="504" 
d="M201 83h283l-11 -83h-367v324h-91v78h91v287h95v-287h97v-78h-97v-241z" />
    <glyph glyph-name="uniA7AD" unicode="&#xa7ad;" horiz-adv-x="551" 
d="M248 83h283l-11 -83h-367v259h-1c-94 3 -142 45 -142 116c0 68 52 105 111 105c14 0 24 -1 32 -3v212h95v-363c45 2 84 7 122 16l11 -61c-42 -11 -88 -16 -133 -19v-179zM152 326h1v89c-8 1 -14 2 -26 2c-26 0 -42 -14 -42 -42c0 -34 25 -49 67 -49z" />
    <glyph glyph-name="Lcaron" unicode="&#x13d;" horiz-adv-x="498" 
d="M303 505l50 184l-83 10l-20 -186zM195 689v-606h283l-11 -83h-367v689h95z" />
    <glyph glyph-name="uni1E3C" unicode="&#x1e3c;" horiz-adv-x="498" 
d="M195 689v-606h283l-11 -83h-367v689h95zM157 -226l-39 45l135 113h61l136 -113l-40 -45l-126 84z" />
    <glyph glyph-name="uni013B" unicode="&#x13b;" horiz-adv-x="498" 
d="M195 689v-606h283l-11 -83h-367v689h95zM287 -77c32 0 57 -24 57 -56c0 -17 -5 -33 -26 -77l-41 -86h-53l29 116c-14 12 -24 28 -24 47c0 32 26 56 58 56z" />
    <glyph glyph-name="Ldot" unicode="&#x13f;" horiz-adv-x="498" 
d="M195 689v-606h283l-11 -83h-367v689h95zM390 450c39 0 65 -27 65 -63c0 -35 -26 -62 -65 -62c-38 0 -64 27 -64 62c0 36 26 63 64 63z" />
    <glyph glyph-name="uni1E36" unicode="&#x1e36;" horiz-adv-x="498" 
d="M195 689v-606h283l-11 -83h-367v689h95zM284 -199c-39 0 -65 27 -65 63c0 35 26 62 65 62c38 0 64 -27 64 -62c0 -36 -26 -63 -64 -63z" />
    <glyph glyph-name="uni01C8" unicode="&#x1c8;" horiz-adv-x="765" 
d="M627 780c39 0 65 -27 65 -63c0 -35 -26 -62 -65 -62c-38 0 -64 27 -64 62c0 36 26 63 64 63zM195 689v-606h283l-11 -83h-367v689h95zM673 527v-495c0 -149 -55 -194 -167 -244l-27 67c69 32 102 58 102 171v501h92z" />
    <glyph glyph-name="Lslash" unicode="&#x141;" horiz-adv-x="514" 
d="M211 83h283l-11 -83h-367v257l-56 -35l-38 60l94 58v349h95v-290l160 99l38 -60l-198 -123v-232z" />
    <glyph glyph-name="M" unicode="M" horiz-adv-x="778" 
d="M659 689l57 -689h-92l-24 311c-9 108 -16 224 -17 281l-149 -514h-89l-157 515c0 -81 -5 -188 -13 -289l-23 -304h-90l57 689h128l145 -501l138 501h129z" />
    <glyph glyph-name="uni1E3E" unicode="&#x1e3e;" horiz-adv-x="778" 
d="M469 911l40 -77l-216 -79l-24 49zM659 689l57 -689h-92l-24 311c-9 108 -16 224 -17 281l-149 -514h-89l-157 515c0 -81 -5 -188 -13 -289l-23 -304h-90l57 689h128l145 -501l138 501h129z" />
    <glyph glyph-name="uni1E40" unicode="&#x1e40;" horiz-adv-x="778" 
d="M388 906c39 0 65 -27 65 -63c0 -35 -26 -62 -65 -62c-38 0 -64 27 -64 62c0 36 26 63 64 63zM659 689l57 -689h-92l-24 311c-9 108 -16 224 -17 281l-149 -514h-89l-157 515c0 -81 -5 -188 -13 -289l-23 -304h-90l57 689h128l145 -501l138 501h129z" />
    <glyph glyph-name="uni019C" unicode="&#x19c;" horiz-adv-x="933" 
d="M738 689h95v-689h-82l-8 79c-44 -62 -96 -91 -161 -91c-73 0 -124 38 -150 99c-52 -68 -106 -99 -174 -99c-108 0 -168 84 -168 201v500h95v-498c0 -79 32 -125 90 -125s93 26 140 93c-1 10 -1 20 -1 30v500h95v-498c0 -79 32 -125 90 -125c59 0 94 27 139 93v530z" />
    <glyph glyph-name="N" unicode="N" horiz-adv-x="683" 
d="M583 689v-689h-127l-280 585c5 -57 13 -141 13 -269v-316h-89v689h124l283 -586c-2 16 -13 126 -13 210v376h89z" />
    <glyph glyph-name="uni01CA" unicode="&#x1ca;" horiz-adv-x="988" 
d="M583 689v-689h-127l-280 585c5 -57 13 -141 13 -269v-316h-89v689h124l283 -586c-2 16 -13 126 -13 210v376h89zM893 689v-593c0 -144 -69 -198 -180 -233l-25 69c91 36 110 76 110 168v589h95z" />
    <glyph glyph-name="Nacute" unicode="&#x143;" horiz-adv-x="683" 
d="M433 911l40 -77l-216 -79l-24 49zM583 689v-689h-127l-280 585c5 -57 13 -141 13 -269v-316h-89v689h124l283 -586c-2 16 -13 126 -13 210v376h89z" />
    <glyph glyph-name="Nacute.loclPLK" horiz-adv-x="683" 
d="M405 926l72 -47l-132 -145l-45 28zM583 689v-689h-127l-280 585c5 -57 13 -141 13 -269v-316h-89v689h124l283 -586c-2 16 -13 126 -13 210v376h89z" />
    <glyph glyph-name="Ncaron" unicode="&#x147;" horiz-adv-x="683" 
d="M480 909l39 -45l-135 -110h-61l-136 110l40 45l126 -81zM583 689v-689h-127l-280 585c5 -57 13 -141 13 -269v-316h-89v689h124l283 -586c-2 16 -13 126 -13 210v376h89z" />
    <glyph glyph-name="uni1E4A" unicode="&#x1e4a;" horiz-adv-x="683" 
d="M583 689v-689h-127l-280 585c5 -57 13 -141 13 -269v-316h-89v689h124l283 -586c-2 16 -13 126 -13 210v376h89zM216 -226l-39 45l135 113h61l136 -113l-40 -45l-126 84z" />
    <glyph glyph-name="uni0145" unicode="&#x145;" horiz-adv-x="683" 
d="M583 689v-689h-127l-280 585c5 -57 13 -141 13 -269v-316h-89v689h124l283 -586c-2 16 -13 126 -13 210v376h89zM346 -77c32 0 57 -24 57 -56c0 -17 -5 -33 -26 -77l-41 -86h-53l29 116c-14 12 -24 28 -24 47c0 32 26 56 58 56z" />
    <glyph glyph-name="uni1E44" unicode="&#x1e44;" horiz-adv-x="683" 
d="M352 906c39 0 65 -27 65 -63c0 -35 -26 -62 -65 -62c-38 0 -64 27 -64 62c0 36 26 63 64 63zM583 689v-689h-127l-280 585c5 -57 13 -141 13 -269v-316h-89v689h124l283 -586c-2 16 -13 126 -13 210v376h89z" />
    <glyph glyph-name="uni1E46" unicode="&#x1e46;" horiz-adv-x="683" 
d="M583 689v-689h-127l-280 585c5 -57 13 -141 13 -269v-316h-89v689h124l283 -586c-2 16 -13 126 -13 210v376h89zM343 -199c-39 0 -65 27 -65 63c0 35 26 62 65 62c38 0 64 -27 64 -62c0 -36 -26 -63 -64 -63z" />
    <glyph glyph-name="uni01F8" unicode="&#x1f8;" horiz-adv-x="683" 
d="M262 911l201 -107l-24 -49l-216 79zM583 689v-689h-127l-280 585c5 -57 13 -141 13 -269v-316h-89v689h124l283 -586c-2 16 -13 126 -13 210v376h89z" />
    <glyph glyph-name="Eng" unicode="&#x14a;" horiz-adv-x="683" 
d="M494 689h89v-746c0 -104 -59 -156 -151 -156c-53 0 -90 19 -115 38l37 60c22 -13 40 -22 73 -22c39 0 61 23 61 74v63h-32l-280 585c5 -57 13 -141 13 -269v-316h-89v689h124l283 -586c-2 16 -13 126 -13 210v376z" />
    <glyph glyph-name="Eng.ss01" horiz-adv-x="672" 
d="M394 701c128 0 185 -84 185 -194v-564c0 -104 -59 -156 -151 -156c-53 0 -90 19 -115 38l37 60c22 -13 40 -22 73 -22c39 0 61 23 61 74v551c0 89 -32 135 -110 135c-79 0 -124 -37 -179 -93v-530h-95v689h82l8 -83c54 57 116 95 204 95z" />
    <glyph glyph-name="uni019D" unicode="&#x19d;" horiz-adv-x="683" 
d="M494 689h89v-689h-127l-280 585c5 -57 13 -141 13 -269v-375c0 -102 -59 -154 -148 -154c-53 0 -90 19 -115 38l36 59c23 -14 41 -23 74 -23c39 0 64 21 64 74v754h124l283 -586c-2 16 -13 126 -13 210v376z" />
    <glyph glyph-name="uni019D.ss01" horiz-adv-x="672" 
d="M394 701c128 0 185 -84 185 -194v-507h-95v488c0 89 -32 135 -110 135c-79 0 -124 -37 -179 -93v-587c0 -104 -59 -156 -151 -156c-53 0 -90 19 -115 38l37 60c22 -13 40 -22 73 -22c39 0 61 23 61 74v752h82l8 -83c54 57 116 95 204 95z" />
    <glyph glyph-name="uni01CB" unicode="&#x1cb;" horiz-adv-x="960" 
d="M822 780c39 0 65 -27 65 -63c0 -35 -26 -62 -65 -62c-38 0 -64 27 -64 62c0 36 26 63 64 63zM583 689v-689h-127l-280 585c5 -57 13 -141 13 -269v-316h-89v689h124l283 -586c-2 16 -13 126 -13 210v376h89zM868 527v-495c0 -149 -55 -194 -167 -244l-27 67
c69 32 102 58 102 171v501h92z" />
    <glyph glyph-name="uni0220" unicode="&#x220;" horiz-adv-x="672" 
d="M394 701c128 0 185 -84 185 -194v-709h-95v690c0 89 -32 135 -110 135c-79 0 -124 -37 -179 -93v-530h-95v689h82l8 -83c54 57 116 95 204 95z" />
    <glyph glyph-name="Ntilde" unicode="&#xd1;" horiz-adv-x="683" 
d="M411 782c-28 0 -50 13 -68 26c-16 12 -31 22 -48 22c-23 0 -37 -16 -53 -46l-56 28c23 49 59 88 109 88c30 0 50 -13 69 -27c15 -11 30 -21 47 -21c20 0 35 14 53 44l56 -28c-26 -57 -64 -86 -109 -86zM583 689v-689h-127l-280 585c5 -57 13 -141 13 -269v-316h-89v689
h124l283 -586c-2 16 -13 126 -13 210v376h89z" />
    <glyph glyph-name="O" unicode="O" horiz-adv-x="692" 
d="M346 701c173 0 291 -125 291 -357c0 -228 -118 -356 -291 -356c-172 0 -291 124 -291 355c0 227 119 358 291 358zM346 623c-115 0 -190 -81 -190 -280s78 -277 190 -277c116 0 190 78 190 278c0 198 -72 279 -190 279z" />
    <glyph glyph-name="uni0222" unicode="&#x222;" horiz-adv-x="652" 
d="M462 390c88 -31 135 -96 135 -181c0 -113 -98 -221 -271 -221c-172 0 -271 104 -271 220c0 81 48 147 134 180c-61 34 -89 90 -89 158v143h95v-138c0 -77 34 -130 132 -130c99 0 132 63 132 130v138h96v-143c0 -67 -33 -122 -93 -156zM326 66c116 0 170 48 170 143
c0 84 -52 134 -170 134c-115 0 -170 -50 -170 -135c0 -94 58 -142 170 -142z" />
    <glyph glyph-name="Oacute" unicode="&#xd3;" horiz-adv-x="692" 
d="M426 911l40 -77l-216 -79l-24 49zM346 701c173 0 291 -125 291 -357c0 -228 -118 -356 -291 -356c-172 0 -291 124 -291 355c0 227 119 358 291 358zM346 623c-115 0 -190 -81 -190 -280s78 -277 190 -277c116 0 190 78 190 278c0 198 -72 279 -190 279z" />
    <glyph glyph-name="Oacute.loclHUN" horiz-adv-x="692" 
d="M398 926l72 -47l-132 -145l-45 28zM346 701c173 0 291 -125 291 -357c0 -228 -118 -356 -291 -356c-172 0 -291 124 -291 355c0 227 119 358 291 358zM346 623c-115 0 -190 -81 -190 -280s78 -277 190 -277c116 0 190 78 190 278c0 198 -72 279 -190 279z" />
    <glyph glyph-name="Oacute.loclPLK" horiz-adv-x="692" 
d="M398 926l72 -47l-132 -145l-45 28zM346 701c173 0 291 -125 291 -357c0 -228 -118 -356 -291 -356c-172 0 -291 124 -291 355c0 227 119 358 291 358zM346 623c-115 0 -190 -81 -190 -280s78 -277 190 -277c116 0 190 78 190 278c0 198 -72 279 -190 279z" />
    <glyph glyph-name="Obreve" unicode="&#x14e;" horiz-adv-x="692" 
d="M344 758c-80 0 -142 49 -150 123l61 13c14 -40 42 -66 89 -66s78 26 92 66l61 -13c-8 -74 -72 -123 -153 -123zM346 701c173 0 291 -125 291 -357c0 -228 -118 -356 -291 -356c-172 0 -291 124 -291 355c0 227 119 358 291 358zM346 623c-115 0 -190 -81 -190 -280
s78 -277 190 -277c116 0 190 78 190 278c0 198 -72 279 -190 279z" />
    <glyph glyph-name="uni01D1" unicode="&#x1d1;" horiz-adv-x="692" 
d="M473 909l39 -45l-135 -110h-61l-136 110l40 45l126 -81zM346 701c173 0 291 -125 291 -357c0 -228 -118 -356 -291 -356c-172 0 -291 124 -291 355c0 227 119 358 291 358zM346 623c-115 0 -190 -81 -190 -280s78 -277 190 -277c116 0 190 78 190 278
c0 198 -72 279 -190 279z" />
    <glyph glyph-name="uni019F" unicode="&#x19f;" horiz-adv-x="692" 
d="M346 701c173 0 291 -125 291 -357c0 -228 -118 -356 -291 -356c-172 0 -291 124 -291 355c0 227 119 358 291 358zM346 623c-106 0 -182 -69 -193 -237h386c-10 168 -84 237 -193 237zM346 66c110 0 186 71 193 250h-386c7 -179 86 -250 193 -250z" />
    <glyph glyph-name="Ocircumflex" unicode="&#xd4;" horiz-adv-x="692" 
d="M219 759l-40 45l136 110h61l135 -110l-39 -45l-127 81zM346 701c173 0 291 -125 291 -357c0 -228 -118 -356 -291 -356c-172 0 -291 124 -291 355c0 227 119 358 291 358zM346 623c-115 0 -190 -81 -190 -280s78 -277 190 -277c116 0 190 78 190 278
c0 198 -72 279 -190 279z" />
    <glyph glyph-name="uni1ED0" unicode="&#x1ed0;" horiz-adv-x="692" 
d="M555 1019l56 -54l-136 -126l-38 35zM218 716l-40 45l136 110h61l135 -110l-39 -45l-127 81zM346 701c173 0 291 -125 291 -357c0 -228 -118 -356 -291 -356c-172 0 -291 124 -291 355c0 227 119 358 291 358zM346 623c-115 0 -190 -81 -190 -280s78 -277 190 -277
c116 0 190 78 190 278c0 198 -72 279 -190 279z" />
    <glyph glyph-name="uni1ED8" unicode="&#x1ed8;" horiz-adv-x="692" 
d="M219 759l-40 45l136 110h61l135 -110l-39 -45l-127 81zM346 701c173 0 291 -125 291 -357c0 -228 -118 -356 -291 -356c-172 0 -291 124 -291 355c0 227 119 358 291 358zM346 623c-115 0 -190 -81 -190 -280s78 -277 190 -277c116 0 190 78 190 278
c0 198 -72 279 -190 279zM346 -199c-39 0 -65 27 -65 63c0 35 26 62 65 62c38 0 64 -27 64 -62c0 -36 -26 -63 -64 -63z" />
    <glyph glyph-name="uni1ED2" unicode="&#x1ed2;" horiz-adv-x="692" 
d="M134 1019l118 -145l-38 -35l-136 126zM218 716l-40 45l136 110h61l135 -110l-39 -45l-127 81zM346 701c173 0 291 -125 291 -357c0 -228 -118 -356 -291 -356c-172 0 -291 124 -291 355c0 227 119 358 291 358zM346 623c-115 0 -190 -81 -190 -280s78 -277 190 -277
c116 0 190 78 190 278c0 198 -72 279 -190 279z" />
    <glyph glyph-name="uni1ED4" unicode="&#x1ed4;" horiz-adv-x="692" 
d="M459 817v84c45 6 71 12 71 43c0 25 -18 36 -44 36c-22 0 -39 -5 -57 -13l-22 51c24 14 53 24 94 24c69 0 108 -37 108 -93c0 -50 -31 -76 -81 -84v-48h-69zM218 716l-40 45l136 110h61l135 -110l-39 -45l-127 81zM346 701c173 0 291 -125 291 -357
c0 -228 -118 -356 -291 -356c-172 0 -291 124 -291 355c0 227 119 358 291 358zM346 623c-115 0 -190 -81 -190 -280s78 -277 190 -277c116 0 190 78 190 278c0 198 -72 279 -190 279z" />
    <glyph glyph-name="uni1ED6" unicode="&#x1ed6;" horiz-adv-x="692" 
d="M402 920c-28 0 -50 13 -68 26c-16 12 -31 22 -48 22c-23 0 -37 -16 -53 -46l-56 28c23 49 59 88 109 88c30 0 50 -13 69 -27c15 -11 30 -21 47 -21c20 0 35 14 53 44l56 -28c-26 -57 -64 -86 -109 -86zM217 716l-40 45l136 110h61l135 -110l-39 -45l-127 81zM346 701
c173 0 291 -125 291 -357c0 -228 -118 -356 -291 -356c-172 0 -291 124 -291 355c0 227 119 358 291 358zM346 623c-115 0 -190 -81 -190 -280s78 -277 190 -277c116 0 190 78 190 278c0 198 -72 279 -190 279z" />
    <glyph glyph-name="uni020C" unicode="&#x20c;" horiz-adv-x="692" 
d="M224 958l86 -173l-58 -25l-106 157zM376 958l76 -168l-58 -25l-96 152zM346 701c173 0 291 -125 291 -357c0 -228 -118 -356 -291 -356c-172 0 -291 124 -291 355c0 227 119 358 291 358zM346 623c-115 0 -190 -81 -190 -280s78 -277 190 -277c116 0 190 78 190 278
c0 198 -72 279 -190 279z" />
    <glyph glyph-name="Odieresis" unicode="&#xd6;" horiz-adv-x="692" 
d="M241 894c32 0 57 -25 57 -57s-25 -57 -57 -57c-33 0 -58 25 -58 57s25 57 58 57zM450 894c33 0 58 -25 58 -57s-25 -57 -58 -57c-32 0 -57 25 -57 57s25 57 57 57zM346 701c173 0 291 -125 291 -357c0 -228 -118 -356 -291 -356c-172 0 -291 124 -291 355
c0 227 119 358 291 358zM346 623c-115 0 -190 -81 -190 -280s78 -277 190 -277c116 0 190 78 190 278c0 198 -72 279 -190 279z" />
    <glyph glyph-name="uni022A" unicode="&#x22a;" horiz-adv-x="692" 
d="M484 920h-273v69h273v-69zM241 860c32 0 57 -25 57 -57s-25 -57 -57 -57c-33 0 -58 25 -58 57s25 57 58 57zM450 860c33 0 58 -25 58 -57s-25 -57 -58 -57c-32 0 -57 25 -57 57s25 57 57 57zM346 701c173 0 291 -125 291 -357c0 -228 -118 -356 -291 -356
c-172 0 -291 124 -291 355c0 227 119 358 291 358zM346 623c-115 0 -190 -81 -190 -280s78 -277 190 -277c116 0 190 78 190 278c0 198 -72 279 -190 279z" />
    <glyph glyph-name="uni022E" unicode="&#x22e;" horiz-adv-x="692" 
d="M345 906c39 0 65 -27 65 -63c0 -35 -26 -62 -65 -62c-38 0 -64 27 -64 62c0 36 26 63 64 63zM346 701c173 0 291 -125 291 -357c0 -228 -118 -356 -291 -356c-172 0 -291 124 -291 355c0 227 119 358 291 358zM346 623c-115 0 -190 -81 -190 -280s78 -277 190 -277
c116 0 190 78 190 278c0 198 -72 279 -190 279z" />
    <glyph glyph-name="uni0230" unicode="&#x230;" horiz-adv-x="692" 
d="M487 940h-273v69h273v-69zM348 866c39 0 65 -27 65 -63c0 -35 -26 -62 -65 -62c-38 0 -64 27 -64 62c0 36 26 63 64 63zM346 701c173 0 291 -125 291 -357c0 -228 -118 -356 -291 -356c-172 0 -291 124 -291 355c0 227 119 358 291 358zM346 623
c-115 0 -190 -81 -190 -280s78 -277 190 -277c116 0 190 78 190 278c0 198 -72 279 -190 279z" />
    <glyph glyph-name="uni1ECC" unicode="&#x1ecc;" horiz-adv-x="692" 
d="M346 701c173 0 291 -125 291 -357c0 -228 -118 -356 -291 -356c-172 0 -291 124 -291 355c0 227 119 358 291 358zM346 623c-115 0 -190 -81 -190 -280s78 -277 190 -277c116 0 190 78 190 278c0 198 -72 279 -190 279zM346 -199c-39 0 -65 27 -65 63c0 35 26 62 65 62
c38 0 64 -27 64 -62c0 -36 -26 -63 -64 -63z" />
    <glyph glyph-name="Ograve" unicode="&#xd2;" horiz-adv-x="692" 
d="M255 911l201 -107l-24 -49l-216 79zM346 701c173 0 291 -125 291 -357c0 -228 -118 -356 -291 -356c-172 0 -291 124 -291 355c0 227 119 358 291 358zM346 623c-115 0 -190 -81 -190 -280s78 -277 190 -277c116 0 190 78 190 278c0 198 -72 279 -190 279z" />
    <glyph glyph-name="uni1ECE" unicode="&#x1ece;" horiz-adv-x="692" 
d="M311 763v84c45 6 71 12 71 43c0 25 -18 36 -44 36c-22 0 -39 -5 -57 -13l-22 51c24 14 53 24 94 24c69 0 108 -37 108 -93c0 -50 -31 -76 -81 -84v-48h-69zM346 701c173 0 291 -125 291 -357c0 -228 -118 -356 -291 -356c-172 0 -291 124 -291 355c0 227 119 358 291 358
zM346 623c-115 0 -190 -81 -190 -280s78 -277 190 -277c116 0 190 78 190 278c0 198 -72 279 -190 279z" />
    <glyph glyph-name="Ohorn" unicode="&#x1a0;" horiz-adv-x="703" 
d="M663 691c0 -58 -31 -93 -89 -104c40 -59 63 -141 63 -243c0 -228 -118 -356 -291 -356c-172 0 -291 124 -291 355c0 227 119 358 291 358c73 0 137 -22 185 -66c38 5 55 23 55 51c0 34 -6 52 -14 72l72 15c11 -19 19 -46 19 -82zM346 66c116 0 190 78 190 278
c0 198 -72 279 -190 279c-115 0 -190 -81 -190 -280s78 -277 190 -277z" />
    <glyph glyph-name="uni1EDA" unicode="&#x1eda;" horiz-adv-x="703" 
d="M466 834l-216 -79l-24 49l200 107zM663 691c0 -58 -31 -93 -89 -104c40 -59 63 -141 63 -243c0 -228 -118 -356 -291 -356c-172 0 -291 124 -291 355c0 227 119 358 291 358c73 0 137 -22 185 -66c38 5 55 23 55 51c0 34 -6 52 -14 72l72 15c11 -19 19 -46 19 -82z
M346 66c116 0 190 78 190 278c0 198 -72 279 -190 279c-115 0 -190 -81 -190 -280s78 -277 190 -277z" />
    <glyph glyph-name="uni1EE2" unicode="&#x1ee2;" horiz-adv-x="703" 
d="M663 691c0 -58 -31 -93 -89 -104c40 -59 63 -141 63 -243c0 -228 -118 -356 -291 -356c-172 0 -291 124 -291 355c0 227 119 358 291 358c73 0 137 -22 185 -66c38 5 55 23 55 51c0 34 -6 52 -14 72l72 15c11 -19 19 -46 19 -82zM346 66c116 0 190 78 190 278
c0 198 -72 279 -190 279c-115 0 -190 -81 -190 -280s78 -277 190 -277zM346 -74c38 0 64 -27 64 -62c0 -36 -26 -63 -64 -63c-39 0 -65 27 -65 63c0 35 26 62 65 62z" />
    <glyph glyph-name="uni1EDC" unicode="&#x1edc;" horiz-adv-x="703" 
d="M456 804l-24 -49l-216 79l39 77zM663 691c0 -58 -31 -93 -89 -104c40 -59 63 -141 63 -243c0 -228 -118 -356 -291 -356c-172 0 -291 124 -291 355c0 227 119 358 291 358c73 0 137 -22 185 -66c38 5 55 23 55 51c0 34 -6 52 -14 72l72 15c11 -19 19 -46 19 -82zM346 66
c116 0 190 78 190 278c0 198 -72 279 -190 279c-115 0 -190 -81 -190 -280s78 -277 190 -277z" />
    <glyph glyph-name="uni1EDE" unicode="&#x1ede;" horiz-adv-x="703" 
d="M338 926c-22 0 -39 -5 -57 -13l-22 51c24 14 53 24 94 24c69 0 108 -37 108 -93c0 -50 -31 -76 -81 -84v-48h-69v84c45 6 71 12 71 43c0 25 -18 36 -44 36zM663 691c0 -58 -31 -93 -89 -104c40 -59 63 -141 63 -243c0 -228 -118 -356 -291 -356c-172 0 -291 124 -291 355
c0 227 119 358 291 358c73 0 137 -22 185 -66c38 5 55 23 55 51c0 34 -6 52 -14 72l72 15c11 -19 19 -46 19 -82zM346 66c116 0 190 78 190 278c0 198 -72 279 -190 279c-115 0 -190 -81 -190 -280s78 -277 190 -277z" />
    <glyph glyph-name="uni1EE0" unicode="&#x1ee0;" horiz-adv-x="703" 
d="M288 830c-23 0 -37 -16 -53 -46l-56 28c23 49 59 88 109 88c30 0 50 -13 69 -27c15 -11 30 -21 47 -21c20 0 35 14 53 44l56 -28c-26 -57 -64 -86 -109 -86c-28 0 -50 13 -68 26c-16 12 -31 22 -48 22zM663 691c0 -58 -31 -93 -89 -104c40 -59 63 -141 63 -243
c0 -228 -118 -356 -291 -356c-172 0 -291 124 -291 355c0 227 119 358 291 358c73 0 137 -22 185 -66c38 5 55 23 55 51c0 34 -6 52 -14 72l72 15c11 -19 19 -46 19 -82zM346 66c116 0 190 78 190 278c0 198 -72 279 -190 279c-115 0 -190 -81 -190 -280s78 -277 190 -277z
" />
    <glyph glyph-name="Ohungarumlaut" unicode="&#x150;" horiz-adv-x="692" 
d="M337 923l64 -45l-123 -145l-45 28zM489 915l62 -49l-131 -138l-43 31zM346 701c173 0 291 -125 291 -357c0 -228 -118 -356 -291 -356c-172 0 -291 124 -291 355c0 227 119 358 291 358zM346 623c-115 0 -190 -81 -190 -280s78 -277 190 -277c116 0 190 78 190 278
c0 198 -72 279 -190 279z" />
    <glyph glyph-name="uni01A2" unicode="&#x1a2;" horiz-adv-x="926" 
d="M663 703c108 0 163 -57 163 -160v-745h-95v748c0 57 -27 83 -75 83c-36 0 -63 -8 -96 -26c48 -60 77 -147 77 -259c0 -228 -118 -356 -291 -356c-172 0 -291 124 -291 355c0 227 119 358 291 358c62 0 118 -17 164 -50c50 34 94 52 153 52zM346 66c116 0 190 78 190 278
c0 198 -72 279 -190 279c-115 0 -190 -81 -190 -280s78 -277 190 -277z" />
    <glyph glyph-name="uni020E" unicode="&#x20e;" horiz-adv-x="692" 
d="M344 922c81 0 145 -49 153 -133l-61 -13c-14 50 -45 76 -92 76s-75 -26 -89 -76l-61 13c8 84 70 133 150 133zM346 701c173 0 291 -125 291 -357c0 -228 -118 -356 -291 -356c-172 0 -291 124 -291 355c0 227 119 358 291 358zM346 623c-115 0 -190 -81 -190 -280
s78 -277 190 -277c116 0 190 78 190 278c0 198 -72 279 -190 279z" />
    <glyph glyph-name="Omacron" unicode="&#x14c;" horiz-adv-x="692" 
d="M482 793h-273v69h273v-69zM346 701c173 0 291 -125 291 -357c0 -228 -118 -356 -291 -356c-172 0 -291 124 -291 355c0 227 119 358 291 358zM346 623c-115 0 -190 -81 -190 -280s78 -277 190 -277c116 0 190 78 190 278c0 198 -72 279 -190 279z" />
    <glyph glyph-name="uni1E52" unicode="&#x1e52;" horiz-adv-x="692" 
d="M428 1040l40 -77l-216 -79l-24 49zM482 759h-273v69h273v-69zM346 701c173 0 291 -125 291 -357c0 -228 -118 -356 -291 -356c-172 0 -291 124 -291 355c0 227 119 358 291 358zM346 623c-115 0 -190 -81 -190 -280s78 -277 190 -277c116 0 190 78 190 278
c0 198 -72 279 -190 279z" />
    <glyph glyph-name="uni1E50" unicode="&#x1e50;" horiz-adv-x="692" 
d="M257 1040l201 -107l-24 -49l-216 79zM482 759h-273v69h273v-69zM346 701c173 0 291 -125 291 -357c0 -228 -118 -356 -291 -356c-172 0 -291 124 -291 355c0 227 119 358 291 358zM346 623c-115 0 -190 -81 -190 -280s78 -277 190 -277c116 0 190 78 190 278
c0 198 -72 279 -190 279z" />
    <glyph glyph-name="uniA7B6" unicode="&#xa7b6;" horiz-adv-x="838" 
d="M701 689c32 -73 77 -196 77 -390c0 -227 -85 -311 -212 -311c-85 0 -131 43 -151 117c-21 -74 -65 -117 -150 -117c-122 0 -205 79 -205 311c0 194 46 317 77 390h92c-49 -112 -74 -222 -74 -387c0 -175 33 -236 118 -236c57 0 95 28 95 115v217h93v-217
c0 -85 40 -116 101 -116c71 0 121 41 121 235c0 167 -28 278 -74 389h92z" />
    <glyph glyph-name="uni01EA" unicode="&#x1ea;" horiz-adv-x="692" 
d="M637 344c0 -186 -79 -306 -202 -343v-1c-102 -44 -123 -78 -123 -114c0 -30 15 -48 56 -48c21 0 37 2 61 7l-9 -70c-20 -4 -37 -7 -63 -7c-77 0 -125 43 -125 101c0 49 26 88 82 121c-155 14 -259 137 -259 353c0 227 119 358 291 358c173 0 291 -125 291 -357zM346 66
c116 0 190 78 190 278c0 198 -72 279 -190 279c-115 0 -190 -81 -190 -280s78 -277 190 -277z" />
    <glyph glyph-name="uni01EC" unicode="&#x1ec;" horiz-adv-x="692" 
d="M482 862v-69h-273v69h273zM637 344c0 -186 -79 -306 -202 -343v-1c-102 -44 -123 -78 -123 -114c0 -30 15 -48 56 -48c21 0 37 2 61 7l-9 -70c-20 -4 -37 -7 -63 -7c-77 0 -125 43 -125 101c0 49 26 88 82 121c-155 14 -259 137 -259 353c0 227 119 358 291 358
c173 0 291 -125 291 -357zM346 66c116 0 190 78 190 278c0 198 -72 279 -190 279c-115 0 -190 -81 -190 -280s78 -277 190 -277z" />
    <glyph glyph-name="uni0186" unicode="&#x186;" 
d="M239 701c163 0 266 -123 266 -355c0 -233 -121 -358 -288 -358c-93 0 -155 38 -197 77l49 59c39 -29 80 -56 145 -56c107 0 190 78 190 277c0 208 -77 278 -171 278c-59 0 -110 -18 -157 -50l-48 60c59 44 123 68 211 68z" />
    <glyph glyph-name="Oslash" unicode="&#xd8;" horiz-adv-x="692" 
d="M486 667c94 -51 151 -161 151 -323c0 -228 -118 -356 -291 -356c-23 0 -45 2 -67 7l-35 -122l-79 21l40 128c-93 52 -150 161 -150 321c0 227 119 358 291 358c23 0 45 -2 66 -7l37 125l79 -21zM346 623c-115 0 -190 -81 -190 -280c0 -132 31 -208 82 -246l158 521
c-16 3 -32 5 -50 5zM346 66c116 0 190 78 190 278c0 135 -30 212 -84 250l-156 -523c15 -3 32 -5 50 -5z" />
    <glyph glyph-name="Oslashacute" unicode="&#x1fe;" horiz-adv-x="692" 
d="M461 849l-216 -79l-24 49l200 107zM486 667c94 -51 151 -161 151 -323c0 -228 -118 -356 -291 -356c-23 0 -45 2 -67 7l-35 -122l-79 21l40 128c-93 52 -150 161 -150 321c0 227 119 358 291 358c23 0 45 -2 66 -7l37 125l79 -21zM346 623c-115 0 -190 -81 -190 -280
c0 -132 31 -208 82 -246l158 521c-16 3 -32 5 -50 5zM346 66c116 0 190 78 190 278c0 135 -30 212 -84 250l-156 -523c15 -3 32 -5 50 -5z" />
    <glyph glyph-name="Otilde" unicode="&#xd5;" horiz-adv-x="692" 
d="M404 782c-28 0 -50 13 -68 26c-16 12 -31 22 -48 22c-23 0 -37 -16 -53 -46l-56 28c23 49 59 88 109 88c30 0 50 -13 69 -27c15 -11 30 -21 47 -21c20 0 35 14 53 44l56 -28c-26 -57 -64 -86 -109 -86zM346 701c173 0 291 -125 291 -357c0 -228 -118 -356 -291 -356
c-172 0 -291 124 -291 355c0 227 119 358 291 358zM346 623c-115 0 -190 -81 -190 -280s78 -277 190 -277c116 0 190 78 190 278c0 198 -72 279 -190 279z" />
    <glyph glyph-name="uni1E4C" unicode="&#x1e4c;" horiz-adv-x="692" 
d="M426 1064l40 -77l-216 -79l-24 49zM404 758c-28 0 -50 13 -68 26c-16 12 -31 22 -48 22c-23 0 -37 -16 -53 -46l-56 28c23 49 59 88 109 88c30 0 50 -13 69 -27c15 -11 30 -21 47 -21c20 0 35 14 53 44l56 -28c-26 -57 -64 -86 -109 -86zM346 701
c173 0 291 -125 291 -357c0 -228 -118 -356 -291 -356c-172 0 -291 124 -291 355c0 227 119 358 291 358zM346 623c-115 0 -190 -81 -190 -280s78 -277 190 -277c116 0 190 78 190 278c0 198 -72 279 -190 279z" />
    <glyph glyph-name="uni022C" unicode="&#x22c;" horiz-adv-x="692" 
d="M482 946h-273v69h273v-69zM404 758c-28 0 -50 13 -68 26c-16 12 -31 22 -48 22c-23 0 -37 -16 -53 -46l-56 28c23 49 59 88 109 88c30 0 50 -13 69 -27c15 -11 30 -21 47 -21c20 0 35 14 53 44l56 -28c-26 -57 -64 -86 -109 -86zM346 701c173 0 291 -125 291 -357
c0 -228 -118 -356 -291 -356c-172 0 -291 124 -291 355c0 227 119 358 291 358zM346 623c-115 0 -190 -81 -190 -280s78 -277 190 -277c116 0 190 78 190 278c0 198 -72 279 -190 279z" />
    <glyph glyph-name="OE" unicode="&#x152;" horiz-adv-x="897" 
d="M843 76v-76h-437c-23 -8 -48 -12 -73 -12c-159 0 -278 124 -278 355c0 227 119 358 278 358c27 0 52 -4 77 -12h425l-11 -76h-298c51 -51 82 -129 89 -225h174v-76h-173c-6 -98 -39 -181 -97 -236h324zM156 343c0 -199 78 -277 180 -277c106 0 180 78 180 278
c0 198 -72 279 -180 279c-105 0 -180 -81 -180 -280z" />
    <glyph glyph-name="P" unicode="P" horiz-adv-x="581" 
d="M281 689c166 0 268 -68 268 -213c0 -158 -115 -223 -267 -223h-87v-253h-95v689h181zM278 328c102 0 170 30 170 147c0 103 -66 140 -168 140h-85v-287h83z" />
    <glyph glyph-name="uni1E54" unicode="&#x1e54;" horiz-adv-x="581" 
d="M411 834l-216 -79l-24 49l200 107zM281 689c166 0 268 -68 268 -213c0 -158 -115 -223 -267 -223h-87v-253h-95v689h181zM278 328c102 0 170 30 170 147c0 103 -66 140 -168 140h-85v-287h83z" />
    <glyph glyph-name="uni1E56" unicode="&#x1e56;" horiz-adv-x="581" 
d="M290 781c-38 0 -64 27 -64 62c0 36 26 63 64 63c39 0 65 -27 65 -63c0 -35 -26 -62 -65 -62zM281 689c166 0 268 -68 268 -213c0 -158 -115 -223 -267 -223h-87v-253h-95v689h181zM278 328c102 0 170 30 170 147c0 103 -66 140 -168 140h-85v-287h83z" />
    <glyph glyph-name="uni01A4" unicode="&#x1a4;" horiz-adv-x="664" 
d="M364 689c166 0 268 -68 268 -213c0 -158 -115 -223 -267 -223h-87v-253h-95v614h-32c-37 0 -54 -18 -54 -50c0 -25 7 -46 18 -73l-64 -32c-20 29 -41 63 -41 108c0 70 49 122 146 122h208zM361 328c102 0 170 30 170 147c0 103 -66 140 -168 140h-85v-287h83z" />
    <glyph glyph-name="Thorn" unicode="&#xde;" horiz-adv-x="581" 
d="M281 571c166 0 268 -68 268 -217c0 -162 -115 -227 -267 -227h-87v-127h-95v689h95v-118h86zM278 202c102 0 170 30 170 151c0 107 -66 144 -168 144h-85v-295h83z" />
    <glyph glyph-name="Q" unicode="Q" horiz-adv-x="691" 
d="M479 39c79 0 138 -28 187 -62l-62 -80c-78 70 -135 93 -260 93c-170 0 -289 122 -289 353c0 227 119 358 291 358c173 0 291 -125 291 -357c0 -169 -60 -254 -158 -305zM156 343c0 -199 78 -277 190 -277c116 0 190 78 190 278c0 198 -72 279 -190 279
c-115 0 -190 -81 -190 -280z" />
    <glyph glyph-name="uni024A" unicode="&#x24a;" horiz-adv-x="669" 
d="M703 -115l37 -60c-25 -19 -62 -38 -115 -38c-92 0 -151 52 -151 156v103c-38 -35 -88 -58 -150 -58c-147 0 -269 111 -269 340c0 239 117 373 274 373c61 0 111 -23 149 -58l7 46h84v-752c0 -51 22 -74 61 -74c33 0 51 9 73 22zM333 66c61 0 103 23 141 60v442
c-34 33 -76 55 -134 55c-109 0 -184 -85 -184 -295c0 -193 78 -262 177 -262z" />
    <glyph glyph-name="R" unicode="R" horiz-adv-x="605" 
d="M467 0l-165 292h-107v-292h-95v689h181c172 0 262 -66 262 -195c0 -97 -50 -155 -149 -185l186 -309h-113zM195 365h96c96 0 151 36 151 129c0 86 -49 121 -162 121h-85v-250z" />
    <glyph glyph-name="Racute" unicode="&#x154;" horiz-adv-x="605" 
d="M419 834l-216 -79l-24 49l200 107zM467 0l-165 292h-107v-292h-95v689h181c172 0 262 -66 262 -195c0 -97 -50 -155 -149 -185l186 -309h-113zM195 365h96c96 0 151 36 151 129c0 86 -49 121 -162 121h-85v-250z" />
    <glyph glyph-name="Rcaron" unicode="&#x158;" horiz-adv-x="605" 
d="M330 754h-61l-136 110l40 45l126 -81l127 81l39 -45zM467 0l-165 292h-107v-292h-95v689h181c172 0 262 -66 262 -195c0 -97 -50 -155 -149 -185l186 -309h-113zM195 365h96c96 0 151 36 151 129c0 86 -49 121 -162 121h-85v-250z" />
    <glyph glyph-name="uni0156" unicode="&#x156;" horiz-adv-x="605" 
d="M394 309l186 -309h-113l-165 292h-107v-292h-95v689h181c172 0 262 -66 262 -195c0 -97 -50 -155 -149 -185zM195 365h96c96 0 151 36 151 129c0 86 -49 121 -162 121h-85v-250zM312 -77c32 0 57 -24 57 -56c0 -17 -5 -33 -26 -77l-41 -86h-53l29 116
c-14 12 -24 28 -24 47c0 32 26 56 58 56z" />
    <glyph glyph-name="uni0210" unicode="&#x210;" horiz-adv-x="605" 
d="M263 785l-58 -25l-106 157l78 41zM405 790l-58 -25l-96 152l78 41zM467 0l-165 292h-107v-292h-95v689h181c172 0 262 -66 262 -195c0 -97 -50 -155 -149 -185l186 -309h-113zM195 365h96c96 0 151 36 151 129c0 86 -49 121 -162 121h-85v-250z" />
    <glyph glyph-name="uni1E5A" unicode="&#x1e5a;" horiz-adv-x="605" 
d="M394 309l186 -309h-113l-165 292h-107v-292h-95v689h181c172 0 262 -66 262 -195c0 -97 -50 -155 -149 -185zM195 365h96c96 0 151 36 151 129c0 86 -49 121 -162 121h-85v-250zM309 -74c38 0 64 -27 64 -62c0 -36 -26 -63 -64 -63c-39 0 -65 27 -65 63c0 35 26 62 65 62
z" />
    <glyph glyph-name="uni0212" unicode="&#x212;" horiz-adv-x="605" 
d="M297 852c-47 0 -75 -26 -89 -76l-61 13c8 84 70 133 150 133c81 0 145 -49 153 -133l-61 -13c-14 50 -45 76 -92 76zM467 0l-165 292h-107v-292h-95v689h181c172 0 262 -66 262 -195c0 -97 -50 -155 -149 -185l186 -309h-113zM195 365h96c96 0 151 36 151 129
c0 86 -49 121 -162 121h-85v-250z" />
    <glyph glyph-name="uni024C" unicode="&#x24c;" horiz-adv-x="616" 
d="M591 0h-113l-165 292h-107v-292h-95v292h-91v73h91v324h181c172 0 262 -66 262 -195c0 -97 -50 -155 -149 -185zM302 365c96 0 151 36 151 129c0 86 -49 121 -162 121h-85v-250h96z" />
    <glyph glyph-name="uni2C64" unicode="&#x2c64;" horiz-adv-x="605" 
d="M195 -63c0 -51 22 -74 61 -74c33 0 51 9 73 22l37 -60c-25 -19 -62 -38 -115 -38c-92 0 -151 52 -151 156v746h181c172 0 262 -66 262 -195c0 -97 -50 -155 -149 -185l186 -309h-113l-165 292h-107v-355zM280 615h-85v-250h96c96 0 151 36 151 129c0 86 -49 121 -162 121
z" />
    <glyph glyph-name="uni2C64.ss01" horiz-adv-x="420" 
d="M195 -63c0 -51 22 -74 61 -74c33 0 51 9 73 22l37 -60c-25 -19 -62 -38 -115 -38c-92 0 -151 52 -151 156v746h82l8 -98c33 73 82 110 163 110c32 0 51 -4 67 -10l-22 -90c-11 3 -27 7 -54 7c-78 0 -126 -47 -149 -149v-522z" />
    <glyph glyph-name="S" unicode="S" horiz-adv-x="545" 
d="M270 701c95 0 155 -28 213 -80l-52 -58c-52 42 -100 60 -157 60c-69 0 -124 -32 -124 -98c0 -58 27 -86 151 -124c110 -34 204 -77 204 -209c0 -120 -91 -204 -246 -204c-99 0 -177 33 -234 89l52 58c52 -42 106 -69 181 -69c81 0 148 40 148 123c0 67 -32 97 -149 133
c-134 41 -204 92 -204 199c0 106 90 180 217 180z" />
    <glyph glyph-name="Sacute" unicode="&#x15a;" horiz-adv-x="545" 
d="M356 911l40 -77l-216 -79l-24 49zM270 701c95 0 155 -28 213 -80l-52 -58c-52 42 -100 60 -157 60c-69 0 -124 -32 -124 -98c0 -58 27 -86 151 -124c110 -34 204 -77 204 -209c0 -120 -91 -204 -246 -204c-99 0 -177 33 -234 89l52 58c52 -42 106 -69 181 -69
c81 0 148 40 148 123c0 67 -32 97 -149 133c-134 41 -204 92 -204 199c0 106 90 180 217 180z" />
    <glyph glyph-name="Sacute.loclPLK" horiz-adv-x="545" 
d="M328 926l72 -47l-132 -145l-45 28zM270 701c95 0 155 -28 213 -80l-52 -58c-52 42 -100 60 -157 60c-69 0 -124 -32 -124 -98c0 -58 27 -86 151 -124c110 -34 204 -77 204 -209c0 -120 -91 -204 -246 -204c-99 0 -177 33 -234 89l52 58c52 -42 106 -69 181 -69
c81 0 148 40 148 123c0 67 -32 97 -149 133c-134 41 -204 92 -204 199c0 106 90 180 217 180z" />
    <glyph glyph-name="uniA78B" unicode="&#xa78b;" horiz-adv-x="225" 
d="M74 347l-14 342h105l-15 -342h-76z" />
    <glyph glyph-name="Scaron" unicode="&#x160;" horiz-adv-x="545" 
d="M403 909l39 -45l-135 -110h-61l-136 110l40 45l126 -81zM270 701c95 0 155 -28 213 -80l-52 -58c-52 42 -100 60 -157 60c-69 0 -124 -32 -124 -98c0 -58 27 -86 151 -124c110 -34 204 -77 204 -209c0 -120 -91 -204 -246 -204c-99 0 -177 33 -234 89l52 58
c52 -42 106 -69 181 -69c81 0 148 40 148 123c0 67 -32 97 -149 133c-134 41 -204 92 -204 199c0 106 90 180 217 180z" />
    <glyph glyph-name="Scedilla" unicode="&#x15e;" horiz-adv-x="545" 
d="M505 192c0 -110 -76 -190 -208 -202v-46c68 -6 93 -44 93 -85c0 -66 -56 -100 -124 -100c-38 0 -71 9 -91 24l25 52c19 -10 37 -16 63 -16c28 0 50 11 50 40c0 27 -25 42 -89 42l11 88c-88 5 -158 37 -210 88l52 58c52 -42 106 -69 181 -69c81 0 148 40 148 123
c0 67 -32 97 -149 133c-134 41 -204 92 -204 199c0 106 90 180 217 180c95 0 155 -28 213 -80l-52 -58c-52 42 -100 60 -157 60c-69 0 -124 -32 -124 -98c0 -58 27 -86 151 -124c110 -34 204 -77 204 -209z" />
    <glyph glyph-name="Scircumflex" unicode="&#x15c;" horiz-adv-x="545" 
d="M149 759l-40 45l136 110h61l135 -110l-39 -45l-127 81zM270 701c95 0 155 -28 213 -80l-52 -58c-52 42 -100 60 -157 60c-69 0 -124 -32 -124 -98c0 -58 27 -86 151 -124c110 -34 204 -77 204 -209c0 -120 -91 -204 -246 -204c-99 0 -177 33 -234 89l52 58
c52 -42 106 -69 181 -69c81 0 148 40 148 123c0 67 -32 97 -149 133c-134 41 -204 92 -204 199c0 106 90 180 217 180z" />
    <glyph glyph-name="uni0218" unicode="&#x218;" horiz-adv-x="545" 
d="M270 701c95 0 155 -28 213 -80l-52 -58c-52 42 -100 60 -157 60c-69 0 -124 -32 -124 -98c0 -58 27 -86 151 -124c110 -34 204 -77 204 -209c0 -120 -91 -204 -246 -204c-99 0 -177 33 -234 89l52 58c52 -42 106 -69 181 -69c81 0 148 40 148 123c0 67 -32 97 -149 133
c-134 41 -204 92 -204 199c0 106 90 180 217 180zM270 -77c32 0 57 -24 57 -56c0 -17 -5 -33 -26 -77l-41 -86h-53l29 116c-14 12 -24 28 -24 47c0 32 26 56 58 56z" />
    <glyph glyph-name="uni1E60" unicode="&#x1e60;" horiz-adv-x="545" 
d="M275 906c39 0 65 -27 65 -63c0 -35 -26 -62 -65 -62c-38 0 -64 27 -64 62c0 36 26 63 64 63zM270 701c95 0 155 -28 213 -80l-52 -58c-52 42 -100 60 -157 60c-69 0 -124 -32 -124 -98c0 -58 27 -86 151 -124c110 -34 204 -77 204 -209c0 -120 -91 -204 -246 -204
c-99 0 -177 33 -234 89l52 58c52 -42 106 -69 181 -69c81 0 148 40 148 123c0 67 -32 97 -149 133c-134 41 -204 92 -204 199c0 106 90 180 217 180z" />
    <glyph glyph-name="uni1E62" unicode="&#x1e62;" horiz-adv-x="545" 
d="M270 701c95 0 155 -28 213 -80l-52 -58c-52 42 -100 60 -157 60c-69 0 -124 -32 -124 -98c0 -58 27 -86 151 -124c110 -34 204 -77 204 -209c0 -120 -91 -204 -246 -204c-99 0 -177 33 -234 89l52 58c52 -42 106 -69 181 -69c81 0 148 40 148 123c0 67 -32 97 -149 133
c-134 41 -204 92 -204 199c0 106 90 180 217 180zM267 -199c-39 0 -65 27 -65 63c0 35 26 62 65 62c38 0 64 -27 64 -62c0 -36 -26 -63 -64 -63z" />
    <glyph glyph-name="uni1E9E" unicode="&#x1e9e;" horiz-adv-x="657" 
d="M315 701c91 0 179 -32 249 -71v-62l-172 -180c145 -14 220 -82 220 -194c0 -130 -90 -206 -227 -206c-50 0 -91 9 -117 23l30 69c18 -7 42 -14 81 -14c87 0 133 43 133 127c0 94 -76 132 -210 132v75l176 189c-50 21 -103 34 -161 34c-80 0 -122 -44 -122 -134v-489h-95
v489c0 134 77 212 215 212z" />
    <glyph glyph-name="uni018F" unicode="&#x18f;" horiz-adv-x="649" 
d="M315 701c171 0 279 -111 279 -345c0 -253 -118 -368 -276 -368c-177 0 -273 123 -273 347c0 13 1 33 3 51h447c-6 171 -73 237 -184 237c-72 0 -130 -28 -179 -65l-48 58c65 56 138 85 231 85zM314 64c104 0 172 69 181 246h-356c3 -176 71 -246 175 -246z" />
    <glyph glyph-name="T" unicode="T" horiz-adv-x="517" 
d="M507 689l-10 -81h-191v-608h-95v608h-196v81h492z" />
    <glyph glyph-name="Tbar" unicode="&#x166;" horiz-adv-x="517" 
d="M497 606h-191v-219h125v-70h-125v-319h-95v319h-123v70h123v219h-196v81h492z" />
    <glyph glyph-name="Tcaron" unicode="&#x164;" horiz-adv-x="517" 
d="M386 909l39 -45l-135 -110h-61l-136 110l40 45l126 -81zM507 689l-10 -81h-191v-608h-95v608h-196v81h492z" />
    <glyph glyph-name="uni0162" unicode="&#x162;" horiz-adv-x="517" 
d="M306 -56c68 -6 96 -44 96 -85c0 -66 -58 -100 -128 -100c-36 0 -67 9 -87 24l25 52c19 -10 35 -16 59 -16c30 0 54 11 54 40c0 27 -25 42 -89 42l12 99h-37v608h-196v81h492l-10 -81h-191v-664z" />
    <glyph glyph-name="uni1E70" unicode="&#x1e70;" horiz-adv-x="517" 
d="M507 689l-10 -81h-191v-608h-95v608h-196v81h492zM132 -226l-39 45l135 113h61l136 -113l-40 -45l-126 84z" />
    <glyph glyph-name="uni021A" unicode="&#x21a;" horiz-adv-x="517" 
d="M507 689l-10 -81h-191v-608h-95v608h-196v81h492zM262 -77c32 0 57 -24 57 -56c0 -17 -5 -33 -26 -77l-41 -86h-53l29 116c-14 12 -24 28 -24 47c0 32 26 56 58 56z" />
    <glyph glyph-name="uni023E" unicode="&#x23e;" horiz-adv-x="517" 
d="M497 608h-101l-91 -235v-373h-93v134l-79 -204l-44 17l123 317v344h-197v81h362l26 67l44 -17l-19 -50h79zM305 504l41 104h-41v-104z" />
    <glyph glyph-name="uni1E6A" unicode="&#x1e6a;" horiz-adv-x="517" 
d="M258 906c39 0 65 -27 65 -63c0 -35 -26 -62 -65 -62c-38 0 -64 27 -64 62c0 36 26 63 64 63zM507 689l-10 -81h-191v-608h-95v608h-196v81h492z" />
    <glyph glyph-name="uni1E6C" unicode="&#x1e6c;" horiz-adv-x="517" 
d="M507 689l-10 -81h-191v-608h-95v608h-196v81h492zM259 -199c-39 0 -65 27 -65 63c0 35 26 62 65 62c38 0 64 -27 64 -62c0 -36 -26 -63 -64 -63z" />
    <glyph glyph-name="uni01AC" unicode="&#x1ac;" horiz-adv-x="555" 
d="M545 689l-10 -81h-191v-608h-95v608h-96c-37 0 -54 -19 -54 -46c0 -26 9 -45 20 -68l-71 -36c-19 29 -38 65 -38 107c0 73 52 124 149 124h386z" />
    <glyph glyph-name="uni1E6E" unicode="&#x1e6e;" horiz-adv-x="517" 
d="M507 689l-10 -81h-191v-608h-95v608h-196v81h492zM395 -173h-273v69h273v-69z" />
    <glyph glyph-name="uni01BC" unicode="&#x1bc;" horiz-adv-x="511" 
d="M443 689l-13 -72h-270v-210c41 22 77 29 117 29c112 0 189 -79 189 -217s-93 -231 -237 -231c-85 0 -150 32 -203 85l54 53c43 -42 90 -63 148 -63c89 0 142 55 142 158c0 108 -53 144 -121 144c-39 0 -66 -8 -105 -23h-72v347h371z" />
    <glyph glyph-name="uni0184" unicode="&#x184;" horiz-adv-x="573" 
d="M285 436c161 0 263 -68 263 -213c0 -162 -111 -223 -267 -223h-182v524l-69 42c29 31 58 76 79 123h85v-253h91zM289 76c91 0 158 27 158 145c0 105 -60 141 -161 141h-92v-286h95z" />
    <glyph glyph-name="uni01A7" unicode="&#x1a7;" horiz-adv-x="537" 
d="M280 701c126 0 212 -68 212 -173c0 -109 -72 -160 -204 -201c-117 -36 -149 -76 -149 -142c0 -79 64 -119 140 -119c72 0 131 27 181 68l52 -57c-58 -56 -136 -89 -236 -89c-144 0 -236 84 -236 197c0 129 94 177 204 211c122 38 149 69 149 132c0 68 -50 95 -117 95
c-62 0 -110 -18 -162 -59l-52 57c62 52 127 80 218 80z" />
    <glyph glyph-name="uni01AE" unicode="&#x1ae;" horiz-adv-x="517" 
d="M306 -63c0 -51 22 -74 61 -74c33 0 51 9 73 22l37 -60c-25 -19 -62 -38 -115 -38c-92 0 -151 52 -151 156v665h-196v81h492l-10 -81h-191v-671z" />
    <glyph glyph-name="U" unicode="U" horiz-adv-x="662" 
d="M572 689v-468c0 -137 -87 -233 -242 -233c-157 0 -240 96 -240 233v468h95v-461c0 -107 47 -160 145 -160c99 0 146 53 146 160v461h96z" />
    <glyph glyph-name="Uacute" unicode="&#xda;" horiz-adv-x="662" 
d="M411 911l40 -77l-216 -79l-24 49zM572 689v-468c0 -137 -87 -233 -242 -233c-157 0 -240 96 -240 233v468h95v-461c0 -107 47 -160 145 -160c99 0 146 53 146 160v461h96z" />
    <glyph glyph-name="Uacute.loclHUN" horiz-adv-x="662" 
d="M383 926l72 -47l-132 -145l-45 28zM572 689v-468c0 -137 -87 -233 -242 -233c-157 0 -240 96 -240 233v468h95v-461c0 -107 47 -160 145 -160c99 0 146 53 146 160v461h96z" />
    <glyph glyph-name="uni0244" unicode="&#x244;" horiz-adv-x="690" 
d="M655 577v-69h-69v-287c0 -137 -87 -233 -242 -233c-157 0 -240 96 -240 233v287h-69v69h69v112h95v-112h291v112h96v-112h69zM490 228v280h-291v-280c0 -107 47 -160 145 -160c99 0 146 53 146 160z" />
    <glyph glyph-name="Ubreve" unicode="&#x16c;" horiz-adv-x="662" 
d="M329 758c-80 0 -142 49 -150 123l61 13c14 -40 42 -66 89 -66s78 26 92 66l61 -13c-8 -74 -72 -123 -153 -123zM572 689v-468c0 -137 -87 -233 -242 -233c-157 0 -240 96 -240 233v468h95v-461c0 -107 47 -160 145 -160c99 0 146 53 146 160v461h96z" />
    <glyph glyph-name="uni01D3" unicode="&#x1d3;" horiz-adv-x="662" 
d="M458 909l39 -45l-135 -110h-61l-136 110l40 45l126 -81zM572 689v-468c0 -137 -87 -233 -242 -233c-157 0 -240 96 -240 233v468h95v-461c0 -107 47 -160 145 -160c99 0 146 53 146 160v461h96z" />
    <glyph glyph-name="Ucircumflex" unicode="&#xdb;" horiz-adv-x="662" 
d="M204 759l-40 45l136 110h61l135 -110l-39 -45l-127 81zM572 689v-468c0 -137 -87 -233 -242 -233c-157 0 -240 96 -240 233v468h95v-461c0 -107 47 -160 145 -160c99 0 146 53 146 160v461h96z" />
    <glyph glyph-name="uni0214" unicode="&#x214;" horiz-adv-x="662" 
d="M209 958l86 -173l-58 -25l-106 157zM361 958l76 -168l-58 -25l-96 152zM572 689v-468c0 -137 -87 -233 -242 -233c-157 0 -240 96 -240 233v468h95v-461c0 -107 47 -160 145 -160c99 0 146 53 146 160v461h96z" />
    <glyph glyph-name="Udieresis" unicode="&#xdc;" horiz-adv-x="662" 
d="M226 894c32 0 57 -25 57 -57s-25 -57 -57 -57c-33 0 -58 25 -58 57s25 57 58 57zM435 894c33 0 58 -25 58 -57s-25 -57 -58 -57c-32 0 -57 25 -57 57s25 57 57 57zM572 689v-468c0 -137 -87 -233 -242 -233c-157 0 -240 96 -240 233v468h95v-461c0 -107 47 -160 145 -160
c99 0 146 53 146 160v461h96z" />
    <glyph glyph-name="uni01D7" unicode="&#x1d7;" horiz-adv-x="662" 
d="M413 1015l56 -54l-136 -126l-38 35zM226 860c32 0 57 -25 57 -57s-25 -57 -57 -57c-33 0 -58 25 -58 57s25 57 58 57zM435 860c33 0 58 -25 58 -57s-25 -57 -58 -57c-32 0 -57 25 -57 57s25 57 57 57zM572 689v-468c0 -137 -87 -233 -242 -233c-157 0 -240 96 -240 233
v468h95v-461c0 -107 47 -160 145 -160c99 0 146 53 146 160v461h96z" />
    <glyph glyph-name="uni01D9" unicode="&#x1d9;" horiz-adv-x="662" 
d="M455 1021l39 -45l-135 -110h-61l-136 110l40 45l126 -81zM226 860c32 0 57 -25 57 -57s-25 -57 -57 -57c-33 0 -58 25 -58 57s25 57 58 57zM435 860c33 0 58 -25 58 -57s-25 -57 -58 -57c-32 0 -57 25 -57 57s25 57 57 57zM572 689v-468c0 -137 -87 -233 -242 -233
c-157 0 -240 96 -240 233v468h95v-461c0 -107 47 -160 145 -160c99 0 146 53 146 160v461h96z" />
    <glyph glyph-name="uni01DB" unicode="&#x1db;" horiz-adv-x="662" 
d="M251 1015l118 -145l-38 -35l-136 126zM226 860c32 0 57 -25 57 -57s-25 -57 -57 -57c-33 0 -58 25 -58 57s25 57 58 57zM435 860c33 0 58 -25 58 -57s-25 -57 -58 -57c-32 0 -57 25 -57 57s25 57 57 57zM572 689v-468c0 -137 -87 -233 -242 -233c-157 0 -240 96 -240 233
v468h95v-461c0 -107 47 -160 145 -160c99 0 146 53 146 160v461h96z" />
    <glyph glyph-name="uni01D5" unicode="&#x1d5;" horiz-adv-x="662" 
d="M469 920h-273v69h273v-69zM226 860c32 0 57 -25 57 -57s-25 -57 -57 -57c-33 0 -58 25 -58 57s25 57 58 57zM435 860c33 0 58 -25 58 -57s-25 -57 -58 -57c-32 0 -57 25 -57 57s25 57 57 57zM572 689v-468c0 -137 -87 -233 -242 -233c-157 0 -240 96 -240 233v468h95
v-461c0 -107 47 -160 145 -160c99 0 146 53 146 160v461h96z" />
    <glyph glyph-name="uni1EE4" unicode="&#x1ee4;" horiz-adv-x="662" 
d="M572 689v-468c0 -137 -87 -233 -242 -233c-157 0 -240 96 -240 233v468h95v-461c0 -107 47 -160 145 -160c99 0 146 53 146 160v461h96zM331 -199c-39 0 -65 27 -65 63c0 35 26 62 65 62c38 0 64 -27 64 -62c0 -36 -26 -63 -64 -63z" />
    <glyph glyph-name="Ugrave" unicode="&#xd9;" horiz-adv-x="662" 
d="M240 911l201 -107l-24 -49l-216 79zM572 689v-468c0 -137 -87 -233 -242 -233c-157 0 -240 96 -240 233v468h95v-461c0 -107 47 -160 145 -160c99 0 146 53 146 160v461h96z" />
    <glyph glyph-name="uni1EE6" unicode="&#x1ee6;" horiz-adv-x="662" 
d="M296 763v84c45 6 71 12 71 43c0 25 -18 36 -44 36c-22 0 -39 -5 -57 -13l-22 51c24 14 53 24 94 24c69 0 108 -37 108 -93c0 -50 -31 -76 -81 -84v-48h-69zM572 689v-468c0 -137 -87 -233 -242 -233c-157 0 -240 96 -240 233v468h95v-461c0 -107 47 -160 145 -160
c99 0 146 53 146 160v461h96z" />
    <glyph glyph-name="Uhorn" unicode="&#x1af;" horiz-adv-x="676" 
d="M677 773c11 -19 19 -46 19 -82c0 -69 -44 -105 -124 -108v-362c0 -137 -87 -233 -242 -233c-157 0 -240 96 -240 233v468h95v-461c0 -107 47 -160 145 -160c99 0 146 53 146 160v461h96v-53c32 6 47 24 47 50c0 34 -6 52 -14 72z" />
    <glyph glyph-name="uni1EE8" unicode="&#x1ee8;" horiz-adv-x="676" 
d="M451 834l-216 -79l-24 49l200 107zM677 773c11 -19 19 -46 19 -82c0 -69 -44 -105 -124 -108v-362c0 -137 -87 -233 -242 -233c-157 0 -240 96 -240 233v468h95v-461c0 -107 47 -160 145 -160c99 0 146 53 146 160v461h96v-53c32 6 47 24 47 50c0 34 -6 52 -14 72z" />
    <glyph glyph-name="uni1EF0" unicode="&#x1ef0;" horiz-adv-x="676" 
d="M677 773c11 -19 19 -46 19 -82c0 -69 -44 -105 -124 -108v-362c0 -137 -87 -233 -242 -233c-157 0 -240 96 -240 233v468h95v-461c0 -107 47 -160 145 -160c99 0 146 53 146 160v461h96v-53c32 6 47 24 47 50c0 34 -6 52 -14 72zM331 -74c38 0 64 -27 64 -62
c0 -36 -26 -63 -64 -63c-39 0 -65 27 -65 63c0 35 26 62 65 62z" />
    <glyph glyph-name="uni1EEA" unicode="&#x1eea;" horiz-adv-x="676" 
d="M441 804l-24 -49l-216 79l39 77zM677 773c11 -19 19 -46 19 -82c0 -69 -44 -105 -124 -108v-362c0 -137 -87 -233 -242 -233c-157 0 -240 96 -240 233v468h95v-461c0 -107 47 -160 145 -160c99 0 146 53 146 160v461h96v-53c32 6 47 24 47 50c0 34 -6 52 -14 72z" />
    <glyph glyph-name="uni1EEC" unicode="&#x1eec;" horiz-adv-x="676" 
d="M323 926c-22 0 -39 -5 -57 -13l-22 51c24 14 53 24 94 24c69 0 108 -37 108 -93c0 -50 -31 -76 -81 -84v-48h-69v84c45 6 71 12 71 43c0 25 -18 36 -44 36zM677 773c11 -19 19 -46 19 -82c0 -69 -44 -105 -124 -108v-362c0 -137 -87 -233 -242 -233
c-157 0 -240 96 -240 233v468h95v-461c0 -107 47 -160 145 -160c99 0 146 53 146 160v461h96v-53c32 6 47 24 47 50c0 34 -6 52 -14 72z" />
    <glyph glyph-name="uni1EEE" unicode="&#x1eee;" horiz-adv-x="676" 
d="M273 830c-23 0 -37 -16 -53 -46l-56 28c23 49 59 88 109 88c30 0 50 -13 69 -27c15 -11 30 -21 47 -21c20 0 35 14 53 44l56 -28c-26 -57 -64 -86 -109 -86c-28 0 -50 13 -68 26c-16 12 -31 22 -48 22zM677 773c11 -19 19 -46 19 -82c0 -69 -44 -105 -124 -108v-362
c0 -137 -87 -233 -242 -233c-157 0 -240 96 -240 233v468h95v-461c0 -107 47 -160 145 -160c99 0 146 53 146 160v461h96v-53c32 6 47 24 47 50c0 34 -6 52 -14 72z" />
    <glyph glyph-name="Uhungarumlaut" unicode="&#x170;" horiz-adv-x="662" 
d="M322 923l64 -45l-123 -145l-45 28zM474 915l62 -49l-131 -138l-43 31zM572 689v-468c0 -137 -87 -233 -242 -233c-157 0 -240 96 -240 233v468h95v-461c0 -107 47 -160 145 -160c99 0 146 53 146 160v461h96z" />
    <glyph glyph-name="uni0216" unicode="&#x216;" horiz-adv-x="662" 
d="M329 922c81 0 145 -49 153 -133l-61 -13c-14 50 -45 76 -92 76s-75 -26 -89 -76l-61 13c8 84 70 133 150 133zM572 689v-468c0 -137 -87 -233 -242 -233c-157 0 -240 96 -240 233v468h95v-461c0 -107 47 -160 145 -160c99 0 146 53 146 160v461h96z" />
    <glyph glyph-name="Umacron" unicode="&#x16a;" horiz-adv-x="662" 
d="M467 793h-273v69h273v-69zM572 689v-468c0 -137 -87 -233 -242 -233c-157 0 -240 96 -240 233v468h95v-461c0 -107 47 -160 145 -160c99 0 146 53 146 160v461h96z" />
    <glyph glyph-name="Uogonek" unicode="&#x172;" horiz-adv-x="662" 
d="M476 689h96v-468c0 -108 -54 -191 -154 -221c-102 -44 -123 -78 -123 -114c0 -30 15 -48 56 -48c21 0 37 2 61 7l-9 -70c-20 -4 -37 -7 -63 -7c-77 0 -125 43 -125 101c0 51 33 92 95 120c-144 7 -220 101 -220 232v468h95v-461c0 -107 47 -160 145 -160
c99 0 146 53 146 160v461z" />
    <glyph glyph-name="uni01B1" unicode="&#x1b1;" horiz-adv-x="692" 
d="M346 -12c-177 0 -291 125 -291 327c0 160 61 237 129 296h-107v78h202v-78c-81 -65 -123 -144 -123 -296c0 -168 72 -249 190 -249c115 0 190 81 190 250c0 151 -49 231 -122 295v78h202v-78h-107c68 -51 128 -130 128 -295c0 -197 -119 -328 -291 -328z" />
    <glyph glyph-name="Uring" unicode="&#x16e;" horiz-adv-x="662" 
d="M331 962c67 0 114 -47 114 -106s-47 -106 -114 -106s-114 47 -114 106s47 106 114 106zM331 912c-33 0 -53 -21 -53 -56s20 -56 53 -56c32 0 53 21 53 56s-20 56 -53 56zM572 689v-468c0 -137 -87 -233 -242 -233c-157 0 -240 96 -240 233v468h95v-461
c0 -107 47 -160 145 -160c99 0 146 53 146 160v461h96z" />
    <glyph glyph-name="Utilde" unicode="&#x168;" horiz-adv-x="662" 
d="M389 782c-28 0 -50 13 -68 26c-16 12 -31 22 -48 22c-23 0 -37 -16 -53 -46l-56 28c23 49 59 88 109 88c30 0 50 -13 69 -27c15 -11 30 -21 47 -21c20 0 35 14 53 44l56 -28c-26 -57 -64 -86 -109 -86zM572 689v-468c0 -137 -87 -233 -242 -233c-157 0 -240 96 -240 233
v468h95v-461c0 -107 47 -160 145 -160c99 0 146 53 146 160v461h96z" />
    <glyph glyph-name="uni1E78" unicode="&#x1e78;" horiz-adv-x="662" 
d="M411 1064l40 -77l-216 -79l-24 49zM389 758c-28 0 -50 13 -68 26c-16 12 -31 22 -48 22c-23 0 -37 -16 -53 -46l-56 28c23 49 59 88 109 88c30 0 50 -13 69 -27c15 -11 30 -21 47 -21c20 0 35 14 53 44l56 -28c-26 -57 -64 -86 -109 -86zM572 689v-468
c0 -137 -87 -233 -242 -233c-157 0 -240 96 -240 233v468h95v-461c0 -107 47 -160 145 -160c99 0 146 53 146 160v461h96z" />
    <glyph glyph-name="V" unicode="V" horiz-adv-x="556" 
d="M550 689l-220 -689h-102l-222 689h102l173 -586l173 586h96z" />
    <glyph glyph-name="uni0194" unicode="&#x194;" horiz-adv-x="554" 
d="M548 689l-213 -620c42 -78 63 -123 63 -180c0 -64 -41 -102 -120 -102c-80 0 -120 38 -120 101c0 48 21 97 63 181l-215 620h102l171 -554l173 554h96zM310 -104c0 29 -13 66 -32 111c-19 -45 -32 -82 -32 -111c0 -23 11 -36 32 -36s32 13 32 36z" />
    <glyph glyph-name="uni01B2" unicode="&#x1b2;" horiz-adv-x="662" 
d="M453 701c76 0 119 -41 119 -127v-273c0 -191 -102 -313 -260 -313c-139 0 -222 96 -222 223v478h95v-473c0 -95 45 -148 127 -148c106 0 164 82 164 240v265c0 37 -9 51 -38 51c-16 0 -27 -3 -37 -7l-24 66c20 11 46 18 76 18z" />
    <glyph glyph-name="uni0245" unicode="&#x245;" horiz-adv-x="573" 
d="M347 689l220 -689h-100l-182 610l-183 -610h-96l221 689h120z" />
    <glyph glyph-name="W" unicode="W" horiz-adv-x="826" 
d="M801 689l-140 -689h-122l-127 577l-128 -577h-119l-140 689h93l111 -606l133 606h101l136 -606l115 606h87z" />
    <glyph glyph-name="Wacute" unicode="&#x1e82;" horiz-adv-x="826" 
d="M493 911l40 -77l-216 -79l-24 49zM801 689l-140 -689h-122l-127 577l-128 -577h-119l-140 689h93l111 -606l133 606h101l136 -606l115 606h87z" />
    <glyph glyph-name="Wcircumflex" unicode="&#x174;" horiz-adv-x="826" 
d="M286 759l-40 45l136 110h61l135 -110l-39 -45l-127 81zM801 689l-140 -689h-122l-127 577l-128 -577h-119l-140 689h93l111 -606l133 606h101l136 -606l115 606h87z" />
    <glyph glyph-name="Wdieresis" unicode="&#x1e84;" horiz-adv-x="826" 
d="M308 894c32 0 57 -25 57 -57s-25 -57 -57 -57c-33 0 -58 25 -58 57s25 57 58 57zM517 894c33 0 58 -25 58 -57s-25 -57 -58 -57c-32 0 -57 25 -57 57s25 57 57 57zM801 689l-140 -689h-122l-127 577l-128 -577h-119l-140 689h93l111 -606l133 606h101l136 -606l115 606
h87z" />
    <glyph glyph-name="Wgrave" unicode="&#x1e80;" horiz-adv-x="826" 
d="M322 911l201 -107l-24 -49l-216 79zM801 689l-140 -689h-122l-127 577l-128 -577h-119l-140 689h93l111 -606l133 606h101l136 -606l115 606h87z" />
    <glyph glyph-name="uni2C72" unicode="&#x2c72;" horiz-adv-x="866" 
d="M25 689l140 -689h119l128 577l127 -577h122l101 561c9 51 24 68 63 68c25 0 44 -10 60 -22l36 54c-29 23 -60 40 -104 40c-72 0 -120 -36 -135 -128l-83 -490l-136 606h-101l-133 -606l-111 606h-93z" />
    <glyph glyph-name="uni01F7" unicode="&#x1f7;" horiz-adv-x="581" 
d="M355 701c104 0 194 -67 194 -191c0 -150 -125 -220 -267 -275l-87 -34v-201h-95v689h95v-52c43 41 95 64 160 64zM278 313c94 38 170 97 170 198c0 75 -42 112 -111 112c-54 0 -102 -19 -142 -60v-284z" />
    <glyph glyph-name="X" unicode="X" horiz-adv-x="540" 
d="M325 372l210 -372h-108l-159 305l-161 -305h-102l207 367l-189 322h108l139 -259l140 259h102z" />
    <glyph glyph-name="Y" unicode="Y" horiz-adv-x="550" 
d="M545 689l-222 -424v-265h-96v264l-222 425h105l168 -341l168 341h99z" />
    <glyph glyph-name="Yacute" unicode="&#xdd;" horiz-adv-x="550" 
d="M355 911l40 -77l-216 -79l-24 49zM545 689l-222 -424v-265h-96v264l-222 425h105l168 -341l168 341h99z" />
    <glyph glyph-name="Ycircumflex" unicode="&#x176;" horiz-adv-x="550" 
d="M148 759l-40 45l136 110h61l135 -110l-39 -45l-127 81zM545 689l-222 -424v-265h-96v264l-222 425h105l168 -341l168 341h99z" />
    <glyph glyph-name="Ydieresis" unicode="&#x178;" horiz-adv-x="550" 
d="M170 894c32 0 57 -25 57 -57s-25 -57 -57 -57c-33 0 -58 25 -58 57s25 57 58 57zM379 894c33 0 58 -25 58 -57s-25 -57 -58 -57c-32 0 -57 25 -57 57s25 57 57 57zM545 689l-222 -424v-265h-96v264l-222 425h105l168 -341l168 341h99z" />
    <glyph glyph-name="uni1EF4" unicode="&#x1ef4;" horiz-adv-x="550" 
d="M545 689l-222 -424v-265h-96v264l-222 425h105l168 -341l168 341h99zM275 -199c-39 0 -65 27 -65 63c0 35 26 62 65 62c38 0 64 -27 64 -62c0 -36 -26 -63 -64 -63z" />
    <glyph glyph-name="Ygrave" unicode="&#x1ef2;" horiz-adv-x="550" 
d="M184 911l201 -107l-24 -49l-216 79zM545 689l-222 -424v-265h-96v264l-222 425h105l168 -341l168 341h99z" />
    <glyph glyph-name="uni01B3" unicode="&#x1b3;" horiz-adv-x="586" 
d="M227 0v264l-222 425h105l168 -341l110 239c37 81 77 114 148 114c44 0 76 -17 105 -40l-36 -54c-16 12 -36 22 -63 22c-31 0 -49 -15 -75 -68l-144 -296v-265h-96z" />
    <glyph glyph-name="uni1EF6" unicode="&#x1ef6;" horiz-adv-x="550" 
d="M240 763v84c45 6 71 12 71 43c0 25 -18 36 -44 36c-22 0 -39 -5 -57 -13l-22 51c24 14 53 24 94 24c69 0 108 -37 108 -93c0 -50 -31 -76 -81 -84v-48h-69zM545 689l-222 -424v-265h-96v264l-222 425h105l168 -341l168 341h99z" />
    <glyph glyph-name="uni0232" unicode="&#x232;" horiz-adv-x="550" 
d="M411 793h-273v69h273v-69zM545 689l-222 -424v-265h-96v264l-222 425h105l168 -341l168 341h99z" />
    <glyph glyph-name="uni01A6" unicode="&#x1a6;" horiz-adv-x="605" 
d="M467 -122l-165 292h-107v-170h-95v689h95v-122h86c172 0 262 -66 262 -195c0 -97 -50 -155 -149 -185l186 -309h-113zM195 243h96c96 0 151 36 151 129c0 86 -49 121 -162 121h-85v-250z" />
    <glyph glyph-name="uni024E" unicode="&#x24e;" horiz-adv-x="550" 
d="M500 604h45v-69h-81l-141 -270v-265h-96v264l-142 271h-75v69h39l-44 85h105l42 -85h252l42 85h99zM278 348l92 187h-184z" />
    <glyph glyph-name="uni1EF8" unicode="&#x1ef8;" horiz-adv-x="550" 
d="M333 782c-28 0 -50 13 -68 26c-16 12 -31 22 -48 22c-23 0 -37 -16 -53 -46l-56 28c23 49 59 88 109 88c30 0 50 -13 69 -27c15 -11 30 -21 47 -21c20 0 35 14 53 44l56 -28c-26 -57 -64 -86 -109 -86zM545 689l-222 -424v-265h-96v264l-222 425h105l168 -341l168 341h99
z" />
    <glyph glyph-name="Z" unicode="Z" horiz-adv-x="522" 
d="M477 689v-77l-341 -531h341l-11 -81h-436v76l344 533h-308v80h411z" />
    <glyph glyph-name="Zacute" unicode="&#x179;" horiz-adv-x="522" 
d="M352 911l40 -77l-216 -79l-24 49zM477 689v-77l-341 -531h341l-11 -81h-436v76l344 533h-308v80h411z" />
    <glyph glyph-name="Zacute.loclPLK" horiz-adv-x="522" 
d="M324 926l72 -47l-132 -145l-45 28zM477 689v-77l-341 -531h341l-11 -81h-436v76l344 533h-308v80h411z" />
    <glyph glyph-name="Zcaron" unicode="&#x17d;" horiz-adv-x="522" 
d="M399 909l39 -45l-135 -110h-61l-136 110l40 45l126 -81zM477 689v-77l-341 -531h341l-11 -81h-436v76l344 533h-308v80h411z" />
    <glyph glyph-name="Zdotaccent" unicode="&#x17b;" horiz-adv-x="522" 
d="M271 906c39 0 65 -27 65 -63c0 -35 -26 -62 -65 -62c-38 0 -64 27 -64 62c0 36 26 63 64 63zM477 689v-77l-341 -531h341l-11 -81h-436v76l344 533h-308v80h411z" />
    <glyph glyph-name="uni1E92" unicode="&#x1e92;" horiz-adv-x="522" 
d="M477 689v-77l-341 -531h341l-11 -81h-436v76l344 533h-308v80h411zM258 -199c-39 0 -65 27 -65 63c0 35 26 62 65 62c38 0 64 -27 64 -62c0 -36 -26 -63 -64 -63z" />
    <glyph glyph-name="uni0224" unicode="&#x224;" horiz-adv-x="522" 
d="M477 689v-77l-341 -531h335v-138c0 -104 -59 -156 -151 -156c-53 0 -90 19 -115 38l36 61c23 -14 41 -23 76 -23c40 0 62 23 62 74v63h-349v76l344 533h-308v80h411z" />
    <glyph glyph-name="uni01B5" unicode="&#x1b5;" horiz-adv-x="522" 
d="M477 689v-77l-148 -228h105v-74h-153l-149 -229h345l-11 -81h-436v76l153 234h-89v74h137l147 225h-312v80h411z" />
    <glyph glyph-name="uni0299" unicode="&#x299;" horiz-adv-x="561" 
d="M370 286c90 -9 134 -51 134 -124c0 -116 -95 -162 -222 -162h-190v520c54 11 115 19 173 19c127 0 212 -49 212 -143c0 -60 -37 -98 -107 -110zM266 468c-31 0 -55 -2 -82 -6v-149h99c59 0 100 19 100 79c0 55 -40 76 -117 76zM282 72c69 0 125 17 125 92
c0 56 -33 81 -123 81h-100v-173h98z" />
    <glyph glyph-name="uni0262" unicode="&#x262;" 
d="M304 539c81 0 131 -25 181 -64l-51 -58c-41 31 -77 46 -129 46c-78 0 -150 -58 -150 -197c0 -148 51 -204 137 -204c39 0 72 7 104 22v142h-96l-10 71h196v-255c-48 -28 -114 -53 -195 -53c-145 0 -234 93 -234 277c0 170 115 273 247 273z" />
    <glyph glyph-name="uni029B" unicode="&#x29b;" 
d="M544 750c53 0 90 -19 115 -38l-36 -59c-23 14 -41 23 -74 23c-39 0 -64 -21 -64 -74v-127l-46 -52c-41 25 -78 40 -133 40c-82 0 -151 -58 -151 -197c0 -148 51 -204 137 -204c39 0 72 7 104 22v142h-96l-10 71h196v-255c-48 -28 -114 -53 -195 -53
c-145 0 -234 93 -234 277c0 170 115 273 247 273c35 0 63 -7 89 -19v74c0 104 59 156 151 156z" />
    <glyph glyph-name="uni029C" unicode="&#x29c;" horiz-adv-x="587" 
d="M403 0v232h-219v-232h-92v527h92v-221h219v221h92v-527h-92z" />
    <glyph glyph-name="uni026A" unicode="&#x26a;" horiz-adv-x="333" 
d="M308 455h-96v-383h96v-72h-283v72h95v383h-95v72h283v-72z" />
    <glyph glyph-name="uni029F" unicode="&#x29f;" horiz-adv-x="433" 
d="M184 527v-449h234l-11 -78h-315v527h92z" />
    <glyph glyph-name="uni0274" unicode="&#x274;" horiz-adv-x="589" 
d="M497 527v-527h-118l-213 435c6 -57 11 -121 11 -226v-209h-85v527h118l213 -437c-5 31 -11 76 -11 150v287h85z" />
    <glyph glyph-name="uni0276" unicode="&#x276;" horiz-adv-x="753" 
d="M723 71v-71h-357c-23 -7 -48 -12 -74 -12c-150 0 -235 108 -235 275c0 163 86 276 236 276c34 0 52 -2 81 -12h344l-10 -71h-252c37 -35 62 -91 70 -153h152v-71h-151c-6 -72 -34 -125 -76 -161h272zM156 263c0 -137 49 -201 137 -201c77 0 137 62 137 201
c0 141 -59 202 -137 202c-88 0 -137 -64 -137 -202z" />
    <glyph glyph-name="uni0280" unicode="&#x280;" horiz-adv-x="524" 
d="M489 0h-104l-128 202h-12h-61v-202h-92v527h143c142 0 220 -56 220 -161c0 -69 -40 -123 -111 -149zM184 456v-184h67c69 0 108 26 108 94c0 63 -42 90 -125 90h-50z" />
    <glyph glyph-name="uni0281" unicode="&#x281;" horiz-adv-x="524" 
d="M345 311c71 -23 110 -73 110 -145c0 -110 -78 -166 -220 -166h-143v527h92v-202h61h12l128 202h104zM234 71c83 0 125 27 125 95c0 63 -39 89 -108 89h-67v-184h50z" />
    <glyph glyph-name="uni028F" unicode="&#x28f;" horiz-adv-x="458" 
d="M458 527l-183 -329v-198h-92v197l-183 330h98l133 -263l132 263h95z" />
    <glyph glyph-name="a" unicode="a" horiz-adv-x="539" 
d="M445 123c0 -46 17 -61 44 -71l-21 -64c-53 6 -87 27 -103 79c-37 -55 -93 -79 -157 -79c-105 0 -168 65 -168 159c0 113 85 174 232 174h81v39c0 76 -37 104 -110 104c-39 0 -88 -10 -142 -28l-23 67c65 24 123 36 182 36c127 0 185 -65 185 -175v-241zM229 57
c54 0 94 27 124 82v121h-69c-97 0 -146 -36 -146 -108c0 -62 31 -95 91 -95z" />
    <glyph glyph-name="a.map" horiz-adv-x="531" 
d="M260 539c127 0 185 -65 185 -175v-364h-80l-6 59c-36 -50 -90 -71 -151 -71c-105 0 -168 65 -168 159c0 113 85 174 232 174h81v39c0 76 -37 104 -110 104c-39 0 -88 -10 -142 -28l-23 67c65 24 123 36 182 36zM229 57c54 0 94 27 124 82v121h-69
c-97 0 -146 -36 -146 -108c0 -62 31 -95 91 -95z" />
    <glyph glyph-name="a.ss04" horiz-adv-x="599" 
d="M498 139c0 -52 13 -67 46 -82l-29 -69c-63 15 -89 43 -101 82c-36 -52 -93 -82 -153 -82c-128 0 -204 109 -204 273c0 161 80 278 213 278c69 0 111 -32 143 -72l6 60h79v-388zM275 61c60 0 96 29 131 78v258c-33 42 -70 69 -122 69c-79 0 -128 -66 -128 -203
c0 -139 44 -202 119 -202z" />
    <glyph glyph-name="aacute" unicode="&#xe1;" horiz-adv-x="539" 
d="M376 724l-212 -86l-28 49l199 114zM445 123c0 -46 17 -61 44 -71l-21 -64c-53 6 -87 27 -103 79c-37 -55 -93 -79 -157 -79c-105 0 -168 65 -168 159c0 113 85 174 232 174h81v39c0 76 -37 104 -110 104c-39 0 -88 -10 -142 -28l-23 67c65 24 123 36 182 36
c127 0 185 -65 185 -175v-241zM229 57c54 0 94 27 124 82v121h-69c-97 0 -146 -36 -146 -108c0 -62 31 -95 91 -95z" />
    <glyph glyph-name="aacute.loclHUN" horiz-adv-x="539" 
d="M379 750l-131 -153l-45 28l104 172zM445 123c0 -46 17 -61 44 -71l-21 -64c-53 6 -87 27 -103 79c-37 -55 -93 -79 -157 -79c-105 0 -168 65 -168 159c0 113 85 174 232 174h81v39c0 76 -37 104 -110 104c-39 0 -88 -10 -142 -28l-23 67c65 24 123 36 182 36
c127 0 185 -65 185 -175v-241zM229 57c54 0 94 27 124 82v121h-69c-97 0 -146 -36 -146 -108c0 -62 31 -95 91 -95z" />
    <glyph glyph-name="abreve" unicode="&#x103;" horiz-adv-x="539" 
d="M254 643c-80 0 -142 49 -150 133l61 13c14 -50 42 -76 89 -76s78 26 92 76l61 -13c-8 -84 -72 -133 -153 -133zM445 123c0 -46 17 -61 44 -71l-21 -64c-53 6 -87 27 -103 79c-37 -55 -93 -79 -157 -79c-105 0 -168 65 -168 159c0 113 85 174 232 174h81v39
c0 76 -37 104 -110 104c-39 0 -88 -10 -142 -28l-23 67c65 24 123 36 182 36c127 0 185 -65 185 -175v-241zM229 57c54 0 94 27 124 82v121h-69c-97 0 -146 -36 -146 -108c0 -62 31 -95 91 -95z" />
    <glyph glyph-name="uni1EAF" unicode="&#x1eaf;" horiz-adv-x="539" 
d="M389 886l-136 -126l-38 35l118 145zM254 598c-80 0 -142 49 -150 123l61 13c14 -40 42 -66 89 -66s78 26 92 66l61 -13c-8 -74 -72 -123 -153 -123zM445 123c0 -46 17 -61 44 -71l-21 -64c-53 6 -87 27 -103 79c-37 -55 -93 -79 -157 -79c-105 0 -168 65 -168 159
c0 113 85 174 232 174h81v39c0 76 -37 104 -110 104c-39 0 -88 -10 -142 -28l-23 67c65 24 123 36 182 36c127 0 185 -65 185 -175v-241zM229 57c54 0 94 27 124 82v121h-69c-97 0 -146 -36 -146 -108c0 -62 31 -95 91 -95z" />
    <glyph glyph-name="uni1EB7" unicode="&#x1eb7;" horiz-adv-x="539" 
d="M254 643c-80 0 -142 49 -150 133l61 13c14 -50 42 -76 89 -76s78 26 92 76l61 -13c-8 -84 -72 -133 -153 -133zM445 123c0 -46 17 -61 44 -71l-21 -64c-53 6 -87 27 -103 79c-37 -55 -93 -79 -157 -79c-105 0 -168 65 -168 159c0 113 85 174 232 174h81v39
c0 76 -37 104 -110 104c-39 0 -88 -10 -142 -28l-23 67c65 24 123 36 182 36c127 0 185 -65 185 -175v-241zM229 57c54 0 94 27 124 82v121h-69c-97 0 -146 -36 -146 -108c0 -62 31 -95 91 -95zM256 -74c38 0 64 -27 64 -62c0 -36 -26 -63 -64 -63c-39 0 -65 27 -65 63
c0 35 26 62 65 62z" />
    <glyph glyph-name="uni1EB1" unicode="&#x1eb1;" horiz-adv-x="539" 
d="M294 795l-38 -35l-136 126l56 54zM254 598c-80 0 -142 49 -150 123l61 13c14 -40 42 -66 89 -66s78 26 92 66l61 -13c-8 -74 -72 -123 -153 -123zM445 123c0 -46 17 -61 44 -71l-21 -64c-53 6 -87 27 -103 79c-37 -55 -93 -79 -157 -79c-105 0 -168 65 -168 159
c0 113 85 174 232 174h81v39c0 76 -37 104 -110 104c-39 0 -88 -10 -142 -28l-23 67c65 24 123 36 182 36c127 0 185 -65 185 -175v-241zM229 57c54 0 94 27 124 82v121h-69c-97 0 -146 -36 -146 -108c0 -62 31 -95 91 -95z" />
    <glyph glyph-name="uni1EB3" unicode="&#x1eb3;" horiz-adv-x="539" 
d="M247 921c-22 0 -39 -5 -57 -13l-22 51c24 14 53 24 94 24c69 0 108 -35 108 -91c0 -50 -31 -78 -81 -86v-58h-69v94c45 6 71 12 71 43c0 25 -18 36 -44 36zM254 598c-80 0 -142 49 -150 123l61 13c14 -40 42 -66 89 -66s78 26 92 66l61 -13c-8 -74 -72 -123 -153 -123z
M445 123c0 -46 17 -61 44 -71l-21 -64c-53 6 -87 27 -103 79c-37 -55 -93 -79 -157 -79c-105 0 -168 65 -168 159c0 113 85 174 232 174h81v39c0 76 -37 104 -110 104c-39 0 -88 -10 -142 -28l-23 67c65 24 123 36 182 36c127 0 185 -65 185 -175v-241zM229 57
c54 0 94 27 124 82v121h-69c-97 0 -146 -36 -146 -108c0 -62 31 -95 91 -95z" />
    <glyph glyph-name="uni1EB5" unicode="&#x1eb5;" horiz-adv-x="539" 
d="M200 841c-23 0 -37 -16 -53 -46l-56 28c23 49 59 88 109 88c30 0 50 -13 69 -27c15 -11 30 -21 47 -21c20 0 35 14 53 44l56 -28c-26 -57 -64 -86 -109 -86c-28 0 -50 13 -68 26c-16 12 -31 22 -48 22zM257 668c47 0 78 26 92 66l61 -13c-8 -74 -72 -123 -153 -123
c-80 0 -142 49 -150 123l61 13c14 -40 42 -66 89 -66zM445 123c0 -46 17 -61 44 -71l-21 -64c-53 6 -87 27 -103 79c-37 -55 -93 -79 -157 -79c-105 0 -168 65 -168 159c0 113 85 174 232 174h81v39c0 76 -37 104 -110 104c-39 0 -88 -10 -142 -28l-23 67
c65 24 123 36 182 36c127 0 185 -65 185 -175v-241zM229 57c54 0 94 27 124 82v121h-69c-97 0 -146 -36 -146 -108c0 -62 31 -95 91 -95z" />
    <glyph glyph-name="uni01CE" unicode="&#x1ce;" horiz-adv-x="539" 
d="M287 627h-61l-136 113l40 45l126 -84l127 84l39 -45zM445 123c0 -46 17 -61 44 -71l-21 -64c-53 6 -87 27 -103 79c-37 -55 -93 -79 -157 -79c-105 0 -168 65 -168 159c0 113 85 174 232 174h81v39c0 76 -37 104 -110 104c-39 0 -88 -10 -142 -28l-23 67
c65 24 123 36 182 36c127 0 185 -65 185 -175v-241zM229 57c54 0 94 27 124 82v121h-69c-97 0 -146 -36 -146 -108c0 -62 31 -95 91 -95z" />
    <glyph glyph-name="acircumflex" unicode="&#xe2;" horiz-adv-x="539" 
d="M256 718l-127 -84l-39 45l135 113h61l136 -113l-40 -45zM445 123c0 -46 17 -61 44 -71l-21 -64c-53 6 -87 27 -103 79c-37 -55 -93 -79 -157 -79c-105 0 -168 65 -168 159c0 113 85 174 232 174h81v39c0 76 -37 104 -110 104c-39 0 -88 -10 -142 -28l-23 67
c65 24 123 36 182 36c127 0 185 -65 185 -175v-241zM229 57c54 0 94 27 124 82v121h-69c-97 0 -146 -36 -146 -108c0 -62 31 -95 91 -95z" />
    <glyph glyph-name="uni1EA5" unicode="&#x1ea5;" horiz-adv-x="539" 
d="M518 838l-136 -126l-38 35l118 145zM251 670l-126 -81l-40 45l136 110h61l135 -110l-39 -45zM445 123c0 -46 17 -61 44 -71l-21 -64c-53 6 -87 27 -103 79c-37 -55 -93 -79 -157 -79c-105 0 -168 65 -168 159c0 113 85 174 232 174h81v39c0 76 -37 104 -110 104
c-39 0 -88 -10 -142 -28l-23 67c65 24 123 36 182 36c127 0 185 -65 185 -175v-241zM229 57c54 0 94 27 124 82v121h-69c-97 0 -146 -36 -146 -108c0 -62 31 -95 91 -95z" />
    <glyph glyph-name="uni1EAD" unicode="&#x1ead;" horiz-adv-x="539" 
d="M256 718l-127 -84l-39 45l135 113h61l136 -113l-40 -45zM445 123c0 -46 17 -61 44 -71l-21 -64c-53 6 -87 27 -103 79c-37 -55 -93 -79 -157 -79c-105 0 -168 65 -168 159c0 113 85 174 232 174h81v39c0 76 -37 104 -110 104c-39 0 -88 -10 -142 -28l-23 67
c65 24 123 36 182 36c127 0 185 -65 185 -175v-241zM229 57c54 0 94 27 124 82v121h-69c-97 0 -146 -36 -146 -108c0 -62 31 -95 91 -95zM256 -74c38 0 64 -27 64 -62c0 -36 -26 -63 -64 -63c-39 0 -65 27 -65 63c0 35 26 62 65 62z" />
    <glyph glyph-name="uni1EA7" unicode="&#x1ea7;" horiz-adv-x="539" 
d="M159 747l-38 -35l-136 126l56 54zM125 589l-40 45l136 110h61l135 -110l-39 -45l-127 81zM445 123c0 -46 17 -61 44 -71l-21 -64c-53 6 -87 27 -103 79c-37 -55 -93 -79 -157 -79c-105 0 -168 65 -168 159c0 113 85 174 232 174h81v39c0 76 -37 104 -110 104
c-39 0 -88 -10 -142 -28l-23 67c65 24 123 36 182 36c127 0 185 -65 185 -175v-241zM229 57c54 0 94 27 124 82v121h-69c-97 0 -146 -36 -146 -108c0 -62 31 -95 91 -95z" />
    <glyph glyph-name="uni1EA9" unicode="&#x1ea9;" horiz-adv-x="539" 
d="M407 951c69 0 108 -35 108 -91c0 -50 -31 -78 -81 -86v-58h-69v94c45 6 71 12 71 43c0 25 -18 36 -44 36c-22 0 -39 -5 -57 -13l-22 51c24 14 53 24 94 24zM251 670l-126 -81l-40 45l136 110h61l135 -110l-39 -45zM445 123c0 -46 17 -61 44 -71l-21 -64
c-53 6 -87 27 -103 79c-37 -55 -93 -79 -157 -79c-105 0 -168 65 -168 159c0 113 85 174 232 174h81v39c0 76 -37 104 -110 104c-39 0 -88 -10 -142 -28l-23 67c65 24 123 36 182 36c127 0 185 -65 185 -175v-241zM229 57c54 0 94 27 124 82v121h-69
c-97 0 -146 -36 -146 -108c0 -62 31 -95 91 -95z" />
    <glyph glyph-name="uni1EAB" unicode="&#x1eab;" horiz-adv-x="539" 
d="M194 831c-23 0 -37 -16 -53 -46l-56 28c23 49 59 88 109 88c30 0 50 -13 69 -27c15 -11 30 -21 47 -21c20 0 35 14 53 44l56 -28c-26 -57 -64 -86 -109 -86c-28 0 -50 13 -68 26c-16 12 -31 22 -48 22zM251 660l-126 -81l-40 45l136 110h61l135 -110l-39 -45zM445 123
c0 -46 17 -61 44 -71l-21 -64c-53 6 -87 27 -103 79c-37 -55 -93 -79 -157 -79c-105 0 -168 65 -168 159c0 113 85 174 232 174h81v39c0 76 -37 104 -110 104c-39 0 -88 -10 -142 -28l-23 67c65 24 123 36 182 36c127 0 185 -65 185 -175v-241zM229 57c54 0 94 27 124 82
v121h-69c-97 0 -146 -36 -146 -108c0 -62 31 -95 91 -95z" />
    <glyph glyph-name="uni0201" unicode="&#x201;" horiz-adv-x="539" 
d="M227 659l-58 -25l-106 157l78 41zM369 664l-58 -25l-96 152l78 41zM445 123c0 -46 17 -61 44 -71l-21 -64c-53 6 -87 27 -103 79c-37 -55 -93 -79 -157 -79c-105 0 -168 65 -168 159c0 113 85 174 232 174h81v39c0 76 -37 104 -110 104c-39 0 -88 -10 -142 -28l-23 67
c65 24 123 36 182 36c127 0 185 -65 185 -175v-241zM229 57c54 0 94 27 124 82v121h-69c-97 0 -146 -36 -146 -108c0 -62 31 -95 91 -95z" />
    <glyph glyph-name="adieresis" unicode="&#xe4;" horiz-adv-x="539" 
d="M151 654c-33 0 -58 25 -58 57s25 57 58 57c32 0 57 -25 57 -57s-25 -57 -57 -57zM360 654c-32 0 -57 25 -57 57s25 57 57 57c33 0 58 -25 58 -57s-25 -57 -58 -57zM445 123c0 -46 17 -61 44 -71l-21 -64c-53 6 -87 27 -103 79c-37 -55 -93 -79 -157 -79
c-105 0 -168 65 -168 159c0 113 85 174 232 174h81v39c0 76 -37 104 -110 104c-39 0 -88 -10 -142 -28l-23 67c65 24 123 36 182 36c127 0 185 -65 185 -175v-241zM229 57c54 0 94 27 124 82v121h-69c-97 0 -146 -36 -146 -108c0 -62 31 -95 91 -95z" />
    <glyph glyph-name="uni01DF" unicode="&#x1df;" horiz-adv-x="539" 
d="M394 867v-69h-273v69h273zM151 624c-33 0 -58 25 -58 57s25 57 58 57c32 0 57 -25 57 -57s-25 -57 -57 -57zM303 681c0 32 25 57 57 57c33 0 58 -25 58 -57s-25 -57 -58 -57c-32 0 -57 25 -57 57zM445 123c0 -46 17 -61 44 -71l-21 -64c-53 6 -87 27 -103 79
c-37 -55 -93 -79 -157 -79c-105 0 -168 65 -168 159c0 113 85 174 232 174h81v39c0 76 -37 104 -110 104c-39 0 -88 -10 -142 -28l-23 67c65 24 123 36 182 36c127 0 185 -65 185 -175v-241zM229 57c54 0 94 27 124 82v121h-69c-97 0 -146 -36 -146 -108
c0 -62 31 -95 91 -95z" />
    <glyph glyph-name="uni0227" unicode="&#x227;" horiz-adv-x="539" 
d="M255 655c-38 0 -64 27 -64 62c0 36 26 63 64 63c39 0 65 -27 65 -63c0 -35 -26 -62 -65 -62zM445 123c0 -46 17 -61 44 -71l-21 -64c-53 6 -87 27 -103 79c-37 -55 -93 -79 -157 -79c-105 0 -168 65 -168 159c0 113 85 174 232 174h81v39c0 76 -37 104 -110 104
c-39 0 -88 -10 -142 -28l-23 67c65 24 123 36 182 36c127 0 185 -65 185 -175v-241zM229 57c54 0 94 27 124 82v121h-69c-97 0 -146 -36 -146 -108c0 -62 31 -95 91 -95z" />
    <glyph glyph-name="uni1EA1" unicode="&#x1ea1;" horiz-adv-x="539" 
d="M445 123c0 -46 17 -61 44 -71l-21 -64c-53 6 -87 27 -103 79c-37 -55 -93 -79 -157 -79c-105 0 -168 65 -168 159c0 113 85 174 232 174h81v39c0 76 -37 104 -110 104c-39 0 -88 -10 -142 -28l-23 67c65 24 123 36 182 36c127 0 185 -65 185 -175v-241zM229 57
c54 0 94 27 124 82v121h-69c-97 0 -146 -36 -146 -108c0 -62 31 -95 91 -95zM256 -74c38 0 64 -27 64 -62c0 -36 -26 -63 -64 -63c-39 0 -65 27 -65 63c0 35 26 62 65 62z" />
    <glyph glyph-name="uni01E1" unicode="&#x1e1;" horiz-adv-x="539" 
d="M391 879v-69h-273v69h273zM190 667c0 36 26 63 64 63c39 0 65 -27 65 -63c0 -35 -26 -62 -65 -62c-38 0 -64 27 -64 62zM445 123c0 -46 17 -61 44 -71l-21 -64c-53 6 -87 27 -103 79c-37 -55 -93 -79 -157 -79c-105 0 -168 65 -168 159c0 113 85 174 232 174h81v39
c0 76 -37 104 -110 104c-39 0 -88 -10 -142 -28l-23 67c65 24 123 36 182 36c127 0 185 -65 185 -175v-241zM229 57c54 0 94 27 124 82v121h-69c-97 0 -146 -36 -146 -108c0 -62 31 -95 91 -95z" />
    <glyph glyph-name="agrave" unicode="&#xe0;" horiz-adv-x="539" 
d="M386 687l-28 -49l-212 86l41 77zM445 123c0 -46 17 -61 44 -71l-21 -64c-53 6 -87 27 -103 79c-37 -55 -93 -79 -157 -79c-105 0 -168 65 -168 159c0 113 85 174 232 174h81v39c0 76 -37 104 -110 104c-39 0 -88 -10 -142 -28l-23 67c65 24 123 36 182 36
c127 0 185 -65 185 -175v-241zM229 57c54 0 94 27 124 82v121h-69c-97 0 -146 -36 -146 -108c0 -62 31 -95 91 -95z" />
    <glyph glyph-name="uni1EA3" unicode="&#x1ea3;" horiz-adv-x="539" 
d="M248 784c-22 0 -39 -5 -57 -13l-22 51c24 14 53 24 94 24c69 0 108 -35 108 -91c0 -50 -31 -78 -81 -86v-58h-69v94c45 6 71 12 71 43c0 25 -18 36 -44 36zM445 123c0 -46 17 -61 44 -71l-21 -64c-53 6 -87 27 -103 79c-37 -55 -93 -79 -157 -79c-105 0 -168 65 -168 159
c0 113 85 174 232 174h81v39c0 76 -37 104 -110 104c-39 0 -88 -10 -142 -28l-23 67c65 24 123 36 182 36c127 0 185 -65 185 -175v-241zM229 57c54 0 94 27 124 82v121h-69c-97 0 -146 -36 -146 -108c0 -62 31 -95 91 -95z" />
    <glyph glyph-name="uni0203" unicode="&#x203;" horiz-adv-x="539" 
d="M254 690c-47 0 -75 -26 -89 -76l-61 13c8 84 70 133 150 133c81 0 145 -49 153 -133l-61 -13c-14 50 -45 76 -92 76zM445 123c0 -46 17 -61 44 -71l-21 -64c-53 6 -87 27 -103 79c-37 -55 -93 -79 -157 -79c-105 0 -168 65 -168 159c0 113 85 174 232 174h81v39
c0 76 -37 104 -110 104c-39 0 -88 -10 -142 -28l-23 67c65 24 123 36 182 36c127 0 185 -65 185 -175v-241zM229 57c54 0 94 27 124 82v121h-69c-97 0 -146 -36 -146 -108c0 -62 31 -95 91 -95z" />
    <glyph glyph-name="uni0251" unicode="&#x251;" horiz-adv-x="599" 
d="M498 139c0 -52 13 -67 46 -82l-29 -69c-63 15 -89 43 -101 82c-36 -52 -93 -82 -153 -82c-128 0 -204 109 -204 273c0 161 80 278 213 278c69 0 111 -32 143 -72l6 60h79v-388zM275 61c60 0 96 29 131 78v258c-33 42 -70 69 -122 69c-79 0 -128 -66 -128 -203
c0 -139 44 -202 119 -202z" />
    <glyph glyph-name="uni0252" unicode="&#x252;" horiz-adv-x="599" 
d="M338 539c128 0 204 -109 204 -273c0 -161 -80 -278 -213 -278c-69 0 -111 32 -143 72l-6 -60h-79v388c0 52 -13 67 -46 82l29 69c63 -15 89 -43 101 -82c36 52 93 82 153 82zM315 61c79 0 128 66 128 203c0 139 -44 202 -119 202c-60 0 -96 -29 -131 -78v-258
c33 -42 70 -69 122 -69z" />
    <glyph glyph-name="amacron" unicode="&#x101;" horiz-adv-x="539" 
d="M392 736v-69h-273v69h273zM445 123c0 -46 17 -61 44 -71l-21 -64c-53 6 -87 27 -103 79c-37 -55 -93 -79 -157 -79c-105 0 -168 65 -168 159c0 113 85 174 232 174h81v39c0 76 -37 104 -110 104c-39 0 -88 -10 -142 -28l-23 67c65 24 123 36 182 36
c127 0 185 -65 185 -175v-241zM229 57c54 0 94 27 124 82v121h-69c-97 0 -146 -36 -146 -108c0 -62 31 -95 91 -95z" />
    <glyph glyph-name="aogonek" unicode="&#x105;" horiz-adv-x="539" 
d="M468 -12c-102 -44 -123 -78 -123 -114c0 -30 15 -48 56 -48c21 0 37 2 61 7l-9 -70c-20 -4 -37 -7 -63 -7c-77 0 -125 43 -125 101c0 65 46 113 144 149c-21 13 -35 32 -44 61c-37 -55 -93 -79 -157 -79c-105 0 -168 65 -168 159c0 113 85 174 232 174h81v39
c0 76 -37 104 -110 104c-39 0 -88 -10 -142 -28l-23 67c65 24 123 36 182 36c127 0 185 -65 185 -175v-241c0 -46 17 -61 44 -71zM229 57c54 0 94 27 124 82v121h-69c-97 0 -146 -36 -146 -108c0 -62 31 -95 91 -95z" />
    <glyph glyph-name="aring" unicode="&#xe5;" horiz-adv-x="539" 
d="M256 624c-67 0 -114 47 -114 106s47 106 114 106s114 -47 114 -106s-47 -106 -114 -106zM256 786c-33 0 -53 -21 -53 -56s20 -56 53 -56c32 0 53 21 53 56s-20 56 -53 56zM445 123c0 -46 17 -61 44 -71l-21 -64c-53 6 -87 27 -103 79c-37 -55 -93 -79 -157 -79
c-105 0 -168 65 -168 159c0 113 85 174 232 174h81v39c0 76 -37 104 -110 104c-39 0 -88 -10 -142 -28l-23 67c65 24 123 36 182 36c127 0 185 -65 185 -175v-241zM229 57c54 0 94 27 124 82v121h-69c-97 0 -146 -36 -146 -108c0 -62 31 -95 91 -95z" />
    <glyph glyph-name="aringacute" unicode="&#x1fb;" horiz-adv-x="539" 
d="M378 881l-216 -79l-24 49l200 107zM142 690c0 59 47 106 114 106s114 -47 114 -106s-47 -106 -114 -106s-114 47 -114 106zM309 690c0 35 -20 56 -53 56s-53 -21 -53 -56s20 -56 53 -56c32 0 53 21 53 56zM445 123c0 -46 17 -61 44 -71l-21 -64c-53 6 -87 27 -103 79
c-37 -55 -93 -79 -157 -79c-105 0 -168 65 -168 159c0 113 85 174 232 174h81v39c0 76 -37 104 -110 104c-39 0 -88 -10 -142 -28l-23 67c65 24 123 36 182 36c127 0 185 -65 185 -175v-241zM229 57c54 0 94 27 124 82v121h-69c-97 0 -146 -36 -146 -108
c0 -62 31 -95 91 -95z" />
    <glyph glyph-name="uni2C65" unicode="&#x2c65;" horiz-adv-x="539" 
d="M445 123c0 -46 17 -61 44 -71l-21 -64c-53 6 -87 27 -103 79c-37 -55 -93 -79 -157 -79l-16 -58l-43 11l14 51c-78 16 -123 75 -123 155c0 108 78 169 213 174l38 138c-14 3 -30 5 -48 5c-39 0 -88 -10 -142 -28l-23 67c65 24 123 36 182 36c19 0 36 -1 52 -4l16 60
l43 -11l-17 -61c62 -26 91 -81 91 -159v-241zM353 360c0 34 -8 59 -23 76l-31 -115h54v39zM229 57c54 0 94 27 124 82v121h-69h-2l-55 -203h2zM138 152c0 -44 15 -73 45 -86l52 190c-64 -10 -97 -45 -97 -104z" />
    <glyph glyph-name="uni2C65.map" horiz-adv-x="531" 
d="M354 523c62 -26 91 -81 91 -159v-364h-80l-6 59c-36 -50 -90 -71 -151 -71l-16 -58l-43 11l14 51c-78 16 -123 75 -123 155c0 108 78 169 213 174l38 138c-14 3 -30 5 -48 5c-39 0 -88 -10 -142 -28l-23 67c65 24 123 36 182 36c19 0 36 -1 52 -4l16 60l43 -11zM353 360
c0 34 -8 59 -23 76l-31 -115h54v39zM229 57c54 0 94 27 124 82v121h-69h-2l-55 -203h2zM138 152c0 -44 15 -73 45 -86l52 190c-64 -10 -97 -45 -97 -104z" />
    <glyph glyph-name="atilde" unicode="&#xe3;" horiz-adv-x="539" 
d="M198 704c-23 0 -37 -16 -53 -46l-56 28c23 49 59 88 109 88c30 0 50 -13 69 -27c15 -11 30 -21 47 -21c20 0 35 14 53 44l56 -28c-26 -57 -64 -86 -109 -86c-28 0 -50 13 -68 26c-16 12 -31 22 -48 22zM445 123c0 -46 17 -61 44 -71l-21 -64c-53 6 -87 27 -103 79
c-37 -55 -93 -79 -157 -79c-105 0 -168 65 -168 159c0 113 85 174 232 174h81v39c0 76 -37 104 -110 104c-39 0 -88 -10 -142 -28l-23 67c65 24 123 36 182 36c127 0 185 -65 185 -175v-241zM229 57c54 0 94 27 124 82v121h-69c-97 0 -146 -36 -146 -108
c0 -62 31 -95 91 -95z" />
    <glyph glyph-name="uni0250" unicode="&#x250;" horiz-adv-x="539" 
d="M296 63c39 0 88 10 142 28l23 -67c-65 -24 -123 -36 -182 -36c-127 0 -185 65 -185 175v241c0 46 -17 61 -44 71l21 64c53 -6 87 -27 103 -79c37 55 93 79 157 79c105 0 168 -65 168 -159c0 -113 -85 -174 -232 -174h-81v-39c0 -76 37 -104 110 -104zM310 470
c-54 0 -94 -27 -124 -82v-121h69c97 0 146 36 146 108c0 62 -31 95 -91 95z" />
    <glyph glyph-name="ae" unicode="&#xe6;" horiz-adv-x="843" 
d="M792 279c0 -18 -1 -35 -2 -47h-336c9 -122 66 -169 142 -169c52 0 91 14 137 46l40 -55c-52 -41 -111 -66 -184 -66c-85 0 -150 35 -190 97c-49 -71 -107 -97 -188 -97c-106 0 -171 65 -171 159c0 113 88 174 235 174h81v39c0 76 -37 104 -110 104
c-39 0 -88 -10 -142 -28l-23 67c65 24 123 36 182 36c84 0 131 -33 157 -84c36 53 86 84 159 84c138 0 213 -99 213 -260zM701 300v6c0 103 -41 160 -124 160c-70 0 -116 -49 -123 -166h247zM232 57c57 0 99 29 139 92c-10 32 -15 68 -15 108v3h-69
c-97 0 -146 -36 -146 -108c0 -62 31 -95 91 -95z" />
    <glyph glyph-name="aeacute" unicode="&#x1fd;" horiz-adv-x="843" 
d="M542 724l-212 -86l-28 49l199 114zM792 279c0 -18 -1 -35 -2 -47h-336c9 -122 66 -169 142 -169c52 0 91 14 137 46l40 -55c-52 -41 -111 -66 -184 -66c-85 0 -150 35 -190 97c-49 -71 -107 -97 -188 -97c-106 0 -171 65 -171 159c0 113 88 174 235 174h81v39
c0 76 -37 104 -110 104c-39 0 -88 -10 -142 -28l-23 67c65 24 123 36 182 36c84 0 131 -33 157 -84c36 53 86 84 159 84c138 0 213 -99 213 -260zM701 300v6c0 103 -41 160 -124 160c-70 0 -116 -49 -123 -166h247zM232 57c57 0 99 29 139 92c-10 32 -15 68 -15 108v3h-69
c-97 0 -146 -36 -146 -108c0 -62 31 -95 91 -95z" />
    <glyph glyph-name="uni01E3" unicode="&#x1e3;" horiz-adv-x="843" 
d="M558 736v-69h-273v69h273zM792 279c0 -18 -1 -35 -2 -47h-336c9 -122 66 -169 142 -169c52 0 91 14 137 46l40 -55c-52 -41 -111 -66 -184 -66c-85 0 -150 35 -190 97c-49 -71 -107 -97 -188 -97c-106 0 -171 65 -171 159c0 113 88 174 235 174h81v39
c0 76 -37 104 -110 104c-39 0 -88 -10 -142 -28l-23 67c65 24 123 36 182 36c84 0 131 -33 157 -84c36 53 86 84 159 84c138 0 213 -99 213 -260zM701 300v6c0 103 -41 160 -124 160c-70 0 -116 -49 -123 -166h247zM232 57c57 0 99 29 139 92c-10 32 -15 68 -15 108v3h-69
c-97 0 -146 -36 -146 -108c0 -62 31 -95 91 -95z" />
    <glyph glyph-name="b" unicode="b" horiz-adv-x="586" 
d="M333 539c119 0 196 -99 196 -275c0 -165 -79 -276 -207 -276c-58 0 -104 26 -140 70l-9 -58h-81v739l92 11v-289c36 49 85 78 149 78zM300 61c77 0 130 59 130 203c0 150 -49 202 -123 202c-58 0 -96 -40 -123 -82v-252c27 -42 69 -71 116 -71z" />
    <glyph glyph-name="uni1E03" unicode="&#x1e03;" horiz-adv-x="586" 
d="M309 831c-38 0 -64 27 -64 62c0 36 26 63 64 63c39 0 65 -27 65 -63c0 -35 -26 -62 -65 -62zM333 539c119 0 196 -99 196 -275c0 -165 -79 -276 -207 -276c-58 0 -104 26 -140 70l-9 -58h-81v739l92 11v-289c36 49 85 78 149 78zM300 61c77 0 130 59 130 203
c0 150 -49 202 -123 202c-58 0 -96 -40 -123 -82v-252c27 -42 69 -71 116 -71z" />
    <glyph glyph-name="uni1E05" unicode="&#x1e05;" horiz-adv-x="586" 
d="M333 539c119 0 196 -99 196 -275c0 -165 -79 -276 -207 -276c-58 0 -104 26 -140 70l-9 -58h-81v739l92 11v-289c36 49 85 78 149 78zM300 61c77 0 130 59 130 203c0 150 -49 202 -123 202c-58 0 -96 -40 -123 -82v-252c27 -42 69 -71 116 -71zM305 -74
c38 0 64 -27 64 -62c0 -36 -26 -63 -64 -63c-39 0 -65 27 -65 63c0 35 26 62 65 62z" />
    <glyph glyph-name="uniA7B5" unicode="&#xa7b5;" horiz-adv-x="600" 
d="M351 404c94 -9 203 -50 203 -201c0 -132 -104 -215 -222 -215c-53 0 -104 17 -148 51v-240l-92 -13v755c0 131 78 209 206 209c114 0 202 -70 202 -184c0 -98 -65 -150 -149 -162zM324 62c75 0 136 48 136 142c0 105 -57 159 -173 159h-52l10 70h49c66 0 119 38 119 129
c0 80 -48 116 -114 116c-76 0 -115 -44 -115 -137v-431c35 -33 80 -48 140 -48z" />
    <glyph glyph-name="uni0253" unicode="&#x253;" horiz-adv-x="586" 
d="M333 539c119 0 196 -99 196 -275c0 -165 -79 -276 -207 -276c-58 0 -104 26 -140 70l-9 -58h-81v599c0 88 58 151 165 151c50 0 84 -9 126 -27l-29 -67c-34 15 -65 20 -92 20c-58 0 -78 -25 -78 -76v-139c36 49 85 78 149 78zM300 61c77 0 130 59 130 203
c0 150 -49 202 -123 202c-58 0 -96 -40 -123 -82v-252c27 -42 69 -71 116 -71z" />
    <glyph glyph-name="uni02AD" unicode="&#x2ad;" horiz-adv-x="340" 
d="M30 400v149h280v-149h-63v90h-154v-90h-63zM30 0v149h280v-149h-63v90h-154v-90h-63z" />
    <glyph glyph-name="uni0298" unicode="&#x298;" horiz-adv-x="792" 
d="M396 701c198 0 341 -129 341 -356c0 -225 -143 -357 -341 -357c-197 0 -341 128 -341 356c0 222 144 357 341 357zM396 627c-147 0 -252 -89 -252 -283c0 -197 108 -282 252 -282c148 0 252 85 252 283c0 193 -102 282 -252 282zM396 408c39 0 65 -27 65 -63
c0 -35 -26 -62 -65 -62c-38 0 -64 27 -64 62c0 36 26 63 64 63z" />
    <glyph glyph-name="uni02AC" unicode="&#x2ac;" horiz-adv-x="467" 
d="M437 665l-68 -265h-87l-47 194l-47 -194h-91l-67 265h80l37 -200l51 200h78l47 -201l40 201h74zM437 265l-68 -265h-87l-47 194l-47 -194h-91l-67 265h80l37 -200l51 200h78l47 -201l40 201h74z" />
    <glyph glyph-name="uni0180" unicode="&#x180;" horiz-adv-x="592" 
d="M339 539c119 0 196 -99 196 -275c0 -165 -79 -276 -207 -276c-58 0 -104 26 -140 70l-9 -58h-81v606h-76v70h76v63l92 11v-74h151v-70h-151v-145c36 49 85 78 149 78zM306 61c77 0 130 59 130 203c0 150 -49 202 -123 202c-58 0 -96 -40 -123 -82v-252
c27 -42 69 -71 116 -71z" />
    <glyph glyph-name="uni0183" unicode="&#x183;" horiz-adv-x="586" 
d="M333 539c119 0 196 -99 196 -275c0 -165 -79 -276 -207 -276c-58 0 -104 26 -140 70l-9 -58h-81v739h316l-12 -70h-212v-208c36 49 85 78 149 78zM300 61c77 0 130 59 130 203c0 150 -49 202 -123 202c-58 0 -96 -40 -123 -82v-252c27 -42 69 -71 116 -71z" />
    <glyph glyph-name="c" unicode="c" horiz-adv-x="478" 
d="M287 539c62 0 112 -16 161 -57l-44 -58c-36 26 -69 39 -113 39c-83 0 -135 -65 -135 -202c0 -138 52 -195 135 -195c44 0 75 14 115 40l42 -60c-47 -38 -100 -58 -161 -58c-142 0 -230 101 -230 271c0 168 87 280 230 280z" />
    <glyph glyph-name="cacute" unicode="&#x107;" horiz-adv-x="478" 
d="M368 801l41 -77l-212 -86l-28 49zM287 539c62 0 112 -16 161 -57l-44 -58c-36 26 -69 39 -113 39c-83 0 -135 -65 -135 -202c0 -138 52 -195 135 -195c44 0 75 14 115 40l42 -60c-47 -38 -100 -58 -161 -58c-142 0 -230 101 -230 271c0 168 87 280 230 280z" />
    <glyph glyph-name="cacute.loclPLK" horiz-adv-x="478" 
d="M340 797l72 -47l-131 -153l-45 28zM287 539c62 0 112 -16 161 -57l-44 -58c-36 26 -69 39 -113 39c-83 0 -135 -65 -135 -202c0 -138 52 -195 135 -195c44 0 75 14 115 40l42 -60c-47 -38 -100 -58 -161 -58c-142 0 -230 101 -230 271c0 168 87 280 230 280z" />
    <glyph glyph-name="ccaron" unicode="&#x10d;" horiz-adv-x="478" 
d="M416 785l39 -45l-135 -113h-61l-136 113l40 45l126 -84zM287 539c62 0 112 -16 161 -57l-44 -58c-36 26 -69 39 -113 39c-83 0 -135 -65 -135 -202c0 -138 52 -195 135 -195c44 0 75 14 115 40l42 -60c-47 -38 -100 -58 -161 -58c-142 0 -230 101 -230 271
c0 168 87 280 230 280z" />
    <glyph glyph-name="ccedilla" unicode="&#xe7;" horiz-adv-x="478" 
d="M448 46c-42 -34 -88 -53 -140 -57v-45c68 -6 93 -44 93 -85c0 -66 -56 -100 -124 -100c-38 0 -71 9 -91 24l25 52c19 -10 37 -16 63 -16c28 0 50 11 50 40c0 27 -25 42 -89 42l11 90c-118 18 -189 115 -189 268c0 168 87 280 230 280c62 0 112 -16 161 -57l-44 -58
c-36 26 -69 39 -113 39c-83 0 -135 -65 -135 -202c0 -138 52 -195 135 -195c44 0 75 14 115 40z" />
    <glyph glyph-name="ccircumflex" unicode="&#x109;" horiz-adv-x="478" 
d="M162 634l-39 45l135 113h61l136 -113l-40 -45l-126 84zM287 539c62 0 112 -16 161 -57l-44 -58c-36 26 -69 39 -113 39c-83 0 -135 -65 -135 -202c0 -138 52 -195 135 -195c44 0 75 14 115 40l42 -60c-47 -38 -100 -58 -161 -58c-142 0 -230 101 -230 271
c0 168 87 280 230 280z" />
    <glyph glyph-name="uni0255" unicode="&#x255;" horiz-adv-x="488" 
d="M345 234c69 0 118 -41 118 -108c0 -88 -75 -138 -176 -138c-31 0 -52 4 -71 10l-33 -73l-59 25l33 75c-63 44 -100 125 -100 234c0 168 87 280 230 280c62 0 112 -16 161 -57l-45 -60c-35 28 -68 41 -112 41c-83 0 -135 -65 -135 -202c0 -73 15 -124 41 -155v1
c35 85 72 127 148 127zM297 66c53 0 85 19 85 60c0 26 -14 41 -41 41c-38 0 -57 -19 -91 -93c15 -6 27 -8 47 -8z" />
    <glyph glyph-name="cdotaccent" unicode="&#x10b;" horiz-adv-x="478" 
d="M288 780c39 0 65 -27 65 -63c0 -35 -26 -62 -65 -62c-38 0 -64 27 -64 62c0 36 26 63 64 63zM287 539c62 0 112 -16 161 -57l-44 -58c-36 26 -69 39 -113 39c-83 0 -135 -65 -135 -202c0 -138 52 -195 135 -195c44 0 75 14 115 40l42 -60c-47 -38 -100 -58 -161 -58
c-142 0 -230 101 -230 271c0 168 87 280 230 280z" />
    <glyph glyph-name="uniAB53" unicode="&#xab53;" horiz-adv-x="471" 
d="M296 186l170 -388h-94l-132 316l-141 -316h-94l180 389l-160 340h101l116 -275l111 275h97z" />
    <glyph glyph-name="uni0188" unicode="&#x188;" horiz-adv-x="478" 
d="M507 750c53 0 90 -19 115 -38l-36 -59c-23 14 -41 23 -74 23c-39 0 -64 -21 -64 -74v-120l-38 -50c-32 18 -65 31 -119 31c-83 0 -135 -65 -135 -202c0 -138 52 -195 135 -195c44 0 75 14 115 40l42 -60c-47 -38 -100 -58 -161 -58c-142 0 -230 101 -230 271
c0 168 87 280 230 280c27 0 49 -4 69 -12v67c0 104 59 156 151 156z" />
    <glyph glyph-name="uni0297" unicode="&#x297;" horiz-adv-x="495" 
d="M313 539c56 0 103 -16 152 -57l-42 -58c-37 26 -68 39 -111 39c-87 0 -139 -85 -139 -302s52 -294 138 -294c41 0 72 14 111 41l43 -61c-47 -38 -100 -58 -156 -58c-147 0 -235 121 -235 370c0 248 87 380 239 380z" />
    <glyph glyph-name="uni023C" unicode="&#x23c;" horiz-adv-x="478" 
d="M291 66c44 0 75 14 115 40l42 -60c-47 -38 -100 -58 -161 -58c-22 0 -43 2 -62 7l-18 -65l-43 11l19 69c-80 39 -126 126 -126 249c0 168 87 280 230 280c14 0 27 -1 40 -3l16 59l43 -11l-16 -57c27 -10 53 -24 78 -45l-44 -58c-18 13 -35 23 -54 29l-104 -380
c14 -5 29 -7 45 -7zM156 261c0 -82 18 -135 50 -165l101 366c-5 1 -11 1 -16 1c-83 0 -135 -65 -135 -202z" />
    <glyph glyph-name="d" unicode="d" horiz-adv-x="590" 
d="M406 750l92 -11v-739h-81l-9 73c-34 -53 -87 -85 -152 -85c-128 0 -199 109 -199 273c0 161 78 278 207 278c62 0 107 -28 142 -65v276zM276 61c59 0 95 29 130 78v258c-33 42 -70 69 -122 69c-79 0 -128 -66 -128 -203c0 -139 44 -202 120 -202z" />
    <glyph glyph-name="eth" unicode="&#xf0;" horiz-adv-x="570" 
d="M342 664c124 -94 166 -219 166 -399c0 -168 -94 -277 -230 -277c-123 0 -221 89 -221 247c0 118 64 240 201 240c65 0 112 -25 147 -67c-16 83 -52 146 -119 199l-72 -70l-63 32l74 75c-39 18 -72 28 -113 36l20 70c56 -11 102 -25 149 -48l70 74l54 -47zM277 61
c81 0 138 70 138 205c0 21 -1 40 -2 59c-34 51 -78 78 -141 78c-94 0 -121 -76 -121 -164c0 -117 51 -178 126 -178z" />
    <glyph glyph-name="uni0238" unicode="&#x238;" horiz-adv-x="860" 
d="M619 539c109 0 184 -99 184 -275c0 -165 -79 -276 -197 -276c-59 0 -101 36 -129 83l-10 -71h-70l-9 73c-34 -53 -86 -85 -142 -85c-118 0 -189 109 -189 273c0 161 76 278 195 278c53 0 99 -28 134 -76v276l92 11v-289c35 49 77 78 141 78zM266 61c49 0 85 29 120 78
v250c-33 50 -71 77 -116 77c-67 0 -114 -66 -114 -203c0 -139 44 -202 110 -202zM591 61c60 0 113 59 113 203c0 150 -45 202 -109 202c-58 0 -91 -40 -117 -78v-241c31 -52 55 -86 113 -86z" />
    <glyph glyph-name="dcaron" unicode="&#x10f;" horiz-adv-x="598" 
d="M406 474v276l92 -11v-739h-81l-9 73c-34 -53 -87 -85 -152 -85c-128 0 -199 109 -199 273c0 161 78 278 207 278c62 0 107 -28 142 -65zM568 749l83 -10l-50 -184l-53 8zM276 61c59 0 95 29 130 78v258c-33 42 -70 69 -122 69c-79 0 -128 -66 -128 -203
c0 -139 44 -202 120 -202z" />
    <glyph glyph-name="uni1E13" unicode="&#x1e13;" horiz-adv-x="590" 
d="M406 750l92 -11v-739h-81l-9 73c-34 -53 -87 -85 -152 -85c-128 0 -199 109 -199 273c0 161 78 278 207 278c62 0 107 -28 142 -65v276zM276 61c59 0 95 29 130 78v258c-33 42 -70 69 -122 69c-79 0 -128 -66 -128 -203c0 -139 44 -202 120 -202zM272 -68h61l136 -113
l-40 -45l-126 84l-127 -84l-39 45z" />
    <glyph glyph-name="dcroat" unicode="&#x111;" horiz-adv-x="604" 
d="M498 676h84v-70h-84v-606h-81l-9 73c-34 -53 -87 -85 -152 -85c-128 0 -199 109 -199 273c0 161 78 278 207 278c62 0 107 -28 142 -65v132h-153v70h153v74l92 -11v-63zM276 61c59 0 95 29 130 78v258c-33 42 -70 69 -122 69c-79 0 -128 -66 -128 -203
c0 -139 44 -202 120 -202z" />
    <glyph glyph-name="uni0221" unicode="&#x221;" horiz-adv-x="733" 
d="M644 224c65 0 109 -41 109 -103c0 -83 -70 -133 -171 -133c-20 0 -41 2 -62 8l-32 -71l-59 25l34 73c-20 15 -37 36 -47 63c-33 -61 -90 -98 -160 -98c-128 0 -199 109 -199 273c0 161 78 278 207 278c62 0 107 -28 142 -65v276l92 -11v-599c0 -15 1 -27 4 -37l1 3
c32 76 71 118 141 118zM276 61c59 0 95 29 130 79v10v247c-33 42 -70 69 -122 69c-79 0 -128 -66 -128 -203c0 -139 44 -202 120 -202zM582 66c63 0 90 19 90 55c0 23 -12 36 -36 36c-32 0 -51 -20 -83 -90c8 -1 18 -1 29 -1z" />
    <glyph glyph-name="uni1E0B" unicode="&#x1e0b;" horiz-adv-x="590" 
d="M295 831c-38 0 -64 27 -64 62c0 36 26 63 64 63c39 0 65 -27 65 -63c0 -35 -26 -62 -65 -62zM406 750l92 -11v-739h-81l-9 73c-34 -53 -87 -85 -152 -85c-128 0 -199 109 -199 273c0 161 78 278 207 278c62 0 107 -28 142 -65v276zM276 61c59 0 95 29 130 78v258
c-33 42 -70 69 -122 69c-79 0 -128 -66 -128 -203c0 -139 44 -202 120 -202z" />
    <glyph glyph-name="uni1E0D" unicode="&#x1e0d;" horiz-adv-x="590" 
d="M406 750l92 -11v-739h-81l-9 73c-34 -53 -87 -85 -152 -85c-128 0 -199 109 -199 273c0 161 78 278 207 278c62 0 107 -28 142 -65v276zM276 61c59 0 95 29 130 78v258c-33 42 -70 69 -122 69c-79 0 -128 -66 -128 -203c0 -139 44 -202 120 -202zM303 -74
c38 0 64 -27 64 -62c0 -36 -26 -63 -64 -63c-39 0 -65 27 -65 63c0 35 26 62 65 62z" />
    <glyph glyph-name="uni018D" unicode="&#x18d;" horiz-adv-x="579" 
d="M371 63c74 -37 96 -81 96 -137c0 -75 -61 -142 -176 -142c-78 0 -130 21 -178 54l47 57c41 -28 75 -39 120 -39c67 0 92 32 92 70c0 45 -22 65 -121 107c-127 54 -194 119 -194 251c0 136 85 255 233 255c139 0 232 -94 232 -252c0 -109 -63 -180 -151 -224zM156 284
c0 -100 38 -148 158 -196c69 43 109 102 109 199c0 114 -43 178 -133 178c-86 0 -134 -63 -134 -181z" />
    <glyph glyph-name="uni02A4" unicode="&#x2a4;" horiz-adv-x="947" 
d="M498 0h-81l-9 73c-34 -53 -87 -85 -152 -85c-128 0 -199 109 -199 273c0 161 78 278 207 278c62 0 107 -28 142 -65v276l92 -11v-739zM687 206c151 0 235 -68 235 -199c0 -132 -95 -220 -240 -220c-94 0 -159 31 -211 90l54 50c46 -45 91 -65 155 -65
c93 0 143 51 143 147c0 93 -45 129 -156 129h-79v67l205 246h-291v76h396v-70l-214 -251h3zM276 61c59 0 95 29 130 78v258c-33 42 -70 69 -122 69c-79 0 -128 -66 -128 -203c0 -139 44 -202 120 -202z" />
    <glyph glyph-name="uni0257" unicode="&#x257;" horiz-adv-x="593" 
d="M557 750c53 0 90 -19 115 -38l-36 -59c-23 14 -41 23 -74 23c-39 0 -64 -21 -64 -74v-602h-81l-9 73c-34 -53 -87 -85 -152 -85c-128 0 -199 109 -199 273c0 161 78 278 207 278c62 0 107 -28 142 -65v120c0 104 59 156 151 156zM276 61c59 0 95 29 130 78v258
c-33 42 -70 69 -122 69c-79 0 -128 -66 -128 -203c0 -139 44 -202 120 -202z" />
    <glyph glyph-name="uni1E0F" unicode="&#x1e0f;" horiz-adv-x="590" 
d="M406 750l92 -11v-739h-81l-9 73c-34 -53 -87 -85 -152 -85c-128 0 -199 109 -199 273c0 161 78 278 207 278c62 0 107 -28 142 -65v276zM276 61c59 0 95 29 130 78v258c-33 42 -70 69 -122 69c-79 0 -128 -66 -128 -203c0 -139 44 -202 120 -202zM166 -173v69h273v-69
h-273z" />
    <glyph glyph-name="uni0256" unicode="&#x256;" horiz-adv-x="593" 
d="M636 -117l36 -58c-25 -19 -62 -38 -115 -38c-91 0 -151 53 -151 156v127c-34 -51 -86 -82 -150 -82c-128 0 -199 109 -199 273c0 161 78 278 207 278c62 0 107 -28 142 -65v276l92 -11v-804c0 -53 25 -74 64 -74c33 0 51 9 74 22zM276 61c59 0 95 29 130 78v258
c-33 42 -70 69 -122 69c-79 0 -128 -66 -128 -203c0 -139 44 -202 120 -202z" />
    <glyph glyph-name="uni018C" unicode="&#x18c;" horiz-adv-x="590" 
d="M498 739v-739h-81l-9 73c-34 -53 -87 -85 -152 -85c-128 0 -199 109 -199 273c0 161 78 278 207 278c62 0 107 -28 142 -65v195h-218v70h310zM276 61c59 0 95 29 130 78v258c-33 42 -70 69 -122 69c-79 0 -128 -66 -128 -203c0 -139 44 -202 120 -202z" />
    <glyph glyph-name="uni01F3" unicode="&#x1f3;" horiz-adv-x="1022" 
d="M406 474v276l92 -11v-739h-81l-9 73c-34 -53 -87 -85 -152 -85c-128 0 -199 109 -199 273c0 161 78 278 207 278c62 0 107 -28 142 -65zM719 77h278l-11 -77h-371v69l274 380h-251v78h356v-70zM276 61c59 0 95 29 130 78v258c-33 42 -70 69 -122 69
c-79 0 -128 -66 -128 -203c0 -139 44 -202 120 -202z" />
    <glyph glyph-name="uni02A3" unicode="&#x2a3;" horiz-adv-x="910" 
d="M602 77h283l-11 -77h-371v69l279 380h-284v-449h-81l-9 73c-34 -53 -87 -85 -152 -85c-128 0 -199 109 -199 273c0 161 78 278 207 278c62 0 107 -28 142 -65v276l92 -11v-212h384v-70zM276 61c59 0 95 29 130 78v258c-33 42 -70 69 -122 69c-79 0 -128 -66 -128 -203
c0 -139 44 -202 120 -202z" />
    <glyph glyph-name="uni01C6" unicode="&#x1c6;" horiz-adv-x="1022" 
d="M840 627h-61l-136 113l40 45l126 -84l127 84l39 -45zM406 474v276l92 -11v-739h-81l-9 73c-34 -53 -87 -85 -152 -85c-128 0 -199 109 -199 273c0 161 78 278 207 278c62 0 107 -28 142 -65zM719 77h278l-11 -77h-371v69l274 380h-251v78h356v-70zM276 61
c59 0 95 29 130 78v258c-33 42 -70 69 -122 69c-79 0 -128 -66 -128 -203c0 -139 44 -202 120 -202z" />
    <glyph glyph-name="uni02A5" unicode="&#x2a5;" horiz-adv-x="929" 
d="M949 119c0 -82 -67 -118 -184 -119c-5 -41 -5 -79 -5 -122h-68c0 43 1 81 5 122h-195v69l274 380h-278v-449h-81l-9 73c-34 -53 -87 -85 -152 -85c-128 0 -199 109 -199 273c0 161 78 278 207 278c62 0 107 -28 142 -65v276l92 -11v-212h383v-70l-275 -380h103
c18 96 69 137 137 137c58 0 103 -34 103 -95zM276 61c59 0 95 29 130 78v258c-33 42 -70 69 -122 69c-79 0 -128 -66 -128 -203c0 -139 44 -202 120 -202zM779 77c67 2 93 10 93 43c0 22 -12 33 -32 33c-25 0 -49 -14 -61 -76z" />
    <glyph glyph-name="e" unicode="e" horiz-adv-x="544" 
d="M493 279c0 -18 -1 -35 -2 -47h-336c9 -122 66 -169 142 -169c52 0 91 14 137 46l40 -55c-52 -41 -111 -66 -184 -66c-147 0 -233 103 -233 270c0 164 83 281 219 281c142 0 217 -99 217 -260zM402 300v6c0 103 -41 160 -124 160c-70 0 -116 -49 -123 -166h247z" />
    <glyph glyph-name="eacute" unicode="&#xe9;" horiz-adv-x="544" 
d="M399 724l-212 -86l-28 49l199 114zM493 279c0 -18 -1 -35 -2 -47h-336c9 -122 66 -169 142 -169c52 0 91 14 137 46l40 -55c-52 -41 -111 -66 -184 -66c-147 0 -233 103 -233 270c0 164 83 281 219 281c142 0 217 -99 217 -260zM402 300v6c0 103 -41 160 -124 160
c-70 0 -116 -49 -123 -166h247z" />
    <glyph glyph-name="eacute.loclHUN" horiz-adv-x="544" 
d="M402 750l-131 -153l-45 28l104 172zM493 279c0 -18 -1 -35 -2 -47h-336c9 -122 66 -169 142 -169c52 0 91 14 137 46l40 -55c-52 -41 -111 -66 -184 -66c-147 0 -233 103 -233 270c0 164 83 281 219 281c142 0 217 -99 217 -260zM402 300v6c0 103 -41 160 -124 160
c-70 0 -116 -49 -123 -166h247z" />
    <glyph glyph-name="ebreve" unicode="&#x115;" horiz-adv-x="544" 
d="M277 643c-80 0 -142 49 -150 133l61 13c14 -50 42 -76 89 -76s78 26 92 76l61 -13c-8 -84 -72 -133 -153 -133zM493 279c0 -18 -1 -35 -2 -47h-336c9 -122 66 -169 142 -169c52 0 91 14 137 46l40 -55c-52 -41 -111 -66 -184 -66c-147 0 -233 103 -233 270
c0 164 83 281 219 281c142 0 217 -99 217 -260zM402 300v6c0 103 -41 160 -124 160c-70 0 -116 -49 -123 -166h247z" />
    <glyph glyph-name="ecaron" unicode="&#x11b;" horiz-adv-x="544" 
d="M310 627h-61l-136 113l40 45l126 -84l127 84l39 -45zM493 279c0 -18 -1 -35 -2 -47h-336c9 -122 66 -169 142 -169c52 0 91 14 137 46l40 -55c-52 -41 -111 -66 -184 -66c-147 0 -233 103 -233 270c0 164 83 281 219 281c142 0 217 -99 217 -260zM402 300v6
c0 103 -41 160 -124 160c-70 0 -116 -49 -123 -166h247z" />
    <glyph glyph-name="uni0229" unicode="&#x229;" horiz-adv-x="544" 
d="M493 279c0 -18 -1 -35 -2 -47h-336c9 -122 66 -169 142 -169c52 0 91 14 137 46l40 -55c-45 -36 -96 -59 -157 -65v-45c68 -6 93 -44 93 -85c0 -66 -56 -100 -124 -100c-38 0 -71 9 -91 24l25 52c19 -10 37 -16 63 -16c28 0 50 11 50 40c0 27 -25 42 -89 42l11 89
c-126 15 -198 115 -198 268c0 164 83 281 219 281c142 0 217 -99 217 -260zM402 300v6c0 103 -41 160 -124 160c-70 0 -116 -49 -123 -166h247z" />
    <glyph glyph-name="ecircumflex" unicode="&#xea;" horiz-adv-x="544" 
d="M279 718l-127 -84l-39 45l135 113h61l136 -113l-40 -45zM493 279c0 -18 -1 -35 -2 -47h-336c9 -122 66 -169 142 -169c52 0 91 14 137 46l40 -55c-52 -41 -111 -66 -184 -66c-147 0 -233 103 -233 270c0 164 83 281 219 281c142 0 217 -99 217 -260zM402 300v6
c0 103 -41 160 -124 160c-70 0 -116 -49 -123 -166h247z" />
    <glyph glyph-name="uni1EBF" unicode="&#x1ebf;" horiz-adv-x="544" 
d="M541 838l-136 -126l-38 35l118 145zM274 670l-126 -81l-40 45l136 110h61l135 -110l-39 -45zM276 539c142 0 217 -99 217 -260c0 -18 -1 -35 -2 -47h-336c9 -122 66 -169 142 -169c52 0 91 14 137 46l40 -55c-52 -41 -111 -66 -184 -66c-147 0 -233 103 -233 270
c0 164 83 281 219 281zM402 300v6c0 103 -41 160 -124 160c-70 0 -116 -49 -123 -166h247z" />
    <glyph glyph-name="uni1EC7" unicode="&#x1ec7;" horiz-adv-x="544" 
d="M279 718l-127 -84l-39 45l135 113h61l136 -113l-40 -45zM493 279c0 -18 -1 -35 -2 -47h-336c9 -122 66 -169 142 -169c52 0 91 14 137 46l40 -55c-52 -41 -111 -66 -184 -66c-147 0 -233 103 -233 270c0 164 83 281 219 281c142 0 217 -99 217 -260zM402 300v6
c0 103 -41 160 -124 160c-70 0 -116 -49 -123 -166h247zM293 -74c38 0 64 -27 64 -62c0 -36 -26 -63 -64 -63c-39 0 -65 27 -65 63c0 35 26 62 65 62z" />
    <glyph glyph-name="uni1EC1" unicode="&#x1ec1;" horiz-adv-x="544" 
d="M182 747l-38 -35l-136 126l56 54zM148 589l-40 45l136 110h61l135 -110l-39 -45l-127 81zM493 279c0 -18 -1 -35 -2 -47h-336c9 -122 66 -169 142 -169c52 0 91 14 137 46l40 -55c-52 -41 -111 -66 -184 -66c-147 0 -233 103 -233 270c0 164 83 281 219 281
c142 0 217 -99 217 -260zM402 300v6c0 103 -41 160 -124 160c-70 0 -116 -49 -123 -166h247z" />
    <glyph glyph-name="uni1EC3" unicode="&#x1ec3;" horiz-adv-x="544" 
d="M430 951c69 0 108 -35 108 -91c0 -50 -31 -78 -81 -86v-58h-69v94c45 6 71 12 71 43c0 25 -18 36 -44 36c-22 0 -39 -5 -57 -13l-22 51c24 14 53 24 94 24zM274 670l-126 -81l-40 45l136 110h61l135 -110l-39 -45zM276 539c142 0 217 -99 217 -260c0 -18 -1 -35 -2 -47
h-336c9 -122 66 -169 142 -169c52 0 91 14 137 46l40 -55c-52 -41 -111 -66 -184 -66c-147 0 -233 103 -233 270c0 164 83 281 219 281zM402 300v6c0 103 -41 160 -124 160c-70 0 -116 -49 -123 -166h247z" />
    <glyph glyph-name="uni1EC5" unicode="&#x1ec5;" horiz-adv-x="544" 
d="M217 831c-23 0 -37 -16 -53 -46l-56 28c23 49 59 88 109 88c30 0 50 -13 69 -27c15 -11 30 -21 47 -21c20 0 35 14 53 44l56 -28c-26 -57 -64 -86 -109 -86c-28 0 -50 13 -68 26c-16 12 -31 22 -48 22zM274 660l-126 -81l-40 45l136 110h61l135 -110l-39 -45zM493 279
c0 -18 -1 -35 -2 -47h-336c9 -122 66 -169 142 -169c52 0 91 14 137 46l40 -55c-52 -41 -111 -66 -184 -66c-147 0 -233 103 -233 270c0 164 83 281 219 281c142 0 217 -99 217 -260zM402 300v6c0 103 -41 160 -124 160c-70 0 -116 -49 -123 -166h247z" />
    <glyph glyph-name="uni0205" unicode="&#x205;" horiz-adv-x="544" 
d="M250 659l-58 -25l-106 157l78 41zM392 664l-58 -25l-96 152l78 41zM493 279c0 -18 -1 -35 -2 -47h-336c9 -122 66 -169 142 -169c52 0 91 14 137 46l40 -55c-52 -41 -111 -66 -184 -66c-147 0 -233 103 -233 270c0 164 83 281 219 281c142 0 217 -99 217 -260zM402 300v6
c0 103 -41 160 -124 160c-70 0 -116 -49 -123 -166h247z" />
    <glyph glyph-name="edieresis" unicode="&#xeb;" horiz-adv-x="544" 
d="M174 654c-33 0 -58 25 -58 57s25 57 58 57c32 0 57 -25 57 -57s-25 -57 -57 -57zM383 654c-32 0 -57 25 -57 57s25 57 57 57c33 0 58 -25 58 -57s-25 -57 -58 -57zM493 279c0 -18 -1 -35 -2 -47h-336c9 -122 66 -169 142 -169c52 0 91 14 137 46l40 -55
c-52 -41 -111 -66 -184 -66c-147 0 -233 103 -233 270c0 164 83 281 219 281c142 0 217 -99 217 -260zM402 300v6c0 103 -41 160 -124 160c-70 0 -116 -49 -123 -166h247z" />
    <glyph glyph-name="edotaccent" unicode="&#x117;" horiz-adv-x="544" 
d="M278 655c-38 0 -64 27 -64 62c0 36 26 63 64 63c39 0 65 -27 65 -63c0 -35 -26 -62 -65 -62zM493 279c0 -18 -1 -35 -2 -47h-336c9 -122 66 -169 142 -169c52 0 91 14 137 46l40 -55c-52 -41 -111 -66 -184 -66c-147 0 -233 103 -233 270c0 164 83 281 219 281
c142 0 217 -99 217 -260zM402 300v6c0 103 -41 160 -124 160c-70 0 -116 -49 -123 -166h247z" />
    <glyph glyph-name="uni1EB9" unicode="&#x1eb9;" horiz-adv-x="544" 
d="M493 279c0 -18 -1 -35 -2 -47h-336c9 -122 66 -169 142 -169c52 0 91 14 137 46l40 -55c-52 -41 -111 -66 -184 -66c-147 0 -233 103 -233 270c0 164 83 281 219 281c142 0 217 -99 217 -260zM402 300v6c0 103 -41 160 -124 160c-70 0 -116 -49 -123 -166h247zM293 -74
c38 0 64 -27 64 -62c0 -36 -26 -63 -64 -63c-39 0 -65 27 -65 63c0 35 26 62 65 62z" />
    <glyph glyph-name="egrave" unicode="&#xe8;" horiz-adv-x="544" 
d="M409 687l-28 -49l-212 86l41 77zM493 279c0 -18 -1 -35 -2 -47h-336c9 -122 66 -169 142 -169c52 0 91 14 137 46l40 -55c-52 -41 -111 -66 -184 -66c-147 0 -233 103 -233 270c0 164 83 281 219 281c142 0 217 -99 217 -260zM402 300v6c0 103 -41 160 -124 160
c-70 0 -116 -49 -123 -166h247z" />
    <glyph glyph-name="uni1EBB" unicode="&#x1ebb;" horiz-adv-x="544" 
d="M271 784c-22 0 -39 -5 -57 -13l-22 51c24 14 53 24 94 24c69 0 108 -35 108 -91c0 -50 -31 -78 -81 -86v-58h-69v94c45 6 71 12 71 43c0 25 -18 36 -44 36zM493 279c0 -18 -1 -35 -2 -47h-336c9 -122 66 -169 142 -169c52 0 91 14 137 46l40 -55
c-52 -41 -111 -66 -184 -66c-147 0 -233 103 -233 270c0 164 83 281 219 281c142 0 217 -99 217 -260zM402 300v6c0 103 -41 160 -124 160c-70 0 -116 -49 -123 -166h247z" />
    <glyph glyph-name="uni0207" unicode="&#x207;" horiz-adv-x="544" 
d="M277 690c-47 0 -75 -26 -89 -76l-61 13c8 84 70 133 150 133c81 0 145 -49 153 -133l-61 -13c-14 50 -45 76 -92 76zM493 279c0 -18 -1 -35 -2 -47h-336c9 -122 66 -169 142 -169c52 0 91 14 137 46l40 -55c-52 -41 -111 -66 -184 -66c-147 0 -233 103 -233 270
c0 164 83 281 219 281c142 0 217 -99 217 -260zM402 300v6c0 103 -41 160 -124 160c-70 0 -116 -49 -123 -166h247z" />
    <glyph glyph-name="emacron" unicode="&#x113;" horiz-adv-x="544" 
d="M415 736v-69h-273v69h273zM493 279c0 -18 -1 -35 -2 -47h-336c9 -122 66 -169 142 -169c52 0 91 14 137 46l40 -55c-52 -41 -111 -66 -184 -66c-147 0 -233 103 -233 270c0 164 83 281 219 281c142 0 217 -99 217 -260zM402 300v6c0 103 -41 160 -124 160
c-70 0 -116 -49 -123 -166h247z" />
    <glyph glyph-name="eogonek" unicode="&#x119;" horiz-adv-x="544" 
d="M493 279c0 -18 -1 -35 -2 -47h-336c9 -122 66 -169 142 -169c52 0 91 14 137 46l40 -55c-29 -23 -59 -40 -93 -52c-95 -42 -115 -75 -115 -110c0 -30 15 -48 56 -48c21 0 37 2 61 7l-9 -70c-20 -4 -37 -7 -63 -7c-77 0 -125 43 -125 101c0 47 28 86 83 114
c-134 9 -212 110 -212 269c0 164 83 281 219 281c142 0 217 -99 217 -260zM402 300v6c0 103 -41 160 -124 160c-70 0 -116 -49 -123 -166h247z" />
    <glyph glyph-name="uni025B" unicode="&#x25b;" horiz-adv-x="462" 
d="M257 539c74 0 126 -18 171 -49l-44 -55c-36 21 -69 32 -118 32c-64 0 -99 -28 -99 -79c0 -47 40 -77 104 -77h61l-11 -72h-56c-84 0 -115 -26 -115 -88c0 -52 40 -89 113 -89c56 0 99 17 141 46l43 -58c-49 -39 -116 -62 -189 -62c-123 0 -207 57 -207 159
c0 86 53 124 132 134c-71 14 -111 50 -111 114c0 89 73 144 185 144z" />
    <glyph glyph-name="uni029A" unicode="&#x29a;" horiz-adv-x="563" 
d="M265 -12c-122 0 -214 63 -214 167c0 77 49 113 134 127c-74 20 -106 56 -106 112c0 90 84 145 189 145c152 0 238 -113 238 -276c0 -167 -77 -275 -241 -275zM268 62c100 0 140 64 140 201c0 138 -49 204 -140 204c-57 0 -95 -26 -95 -74c0 -59 55 -82 115 -82h23l6 -72
h-39c-69 0 -130 -17 -130 -83c0 -69 53 -94 120 -94z" />
    <glyph glyph-name="uni025C" unicode="&#x25c;" horiz-adv-x="494" 
d="M225 539c98 0 190 -49 190 -142c0 -59 -32 -95 -106 -115c85 -14 134 -50 134 -127c0 -114 -102 -167 -225 -167c-88 0 -152 26 -203 66l48 57c45 -32 88 -49 152 -49c68 0 129 20 129 94c0 66 -61 83 -138 83h-70l6 72h54c69 0 124 23 124 82c0 56 -48 74 -105 74
c-59 0 -97 -17 -136 -43l-44 55c52 39 110 60 190 60z" />
    <glyph glyph-name="uni025E" unicode="&#x25e;" horiz-adv-x="563" 
d="M298 -12c-164 0 -241 108 -241 275c0 163 86 276 238 276c105 0 189 -55 189 -145c0 -56 -32 -92 -106 -112c85 -14 134 -50 134 -127c0 -104 -92 -167 -214 -167zM295 62c67 0 120 25 120 94c0 66 -61 83 -130 83h-39l6 72h23c60 0 115 23 115 82c0 48 -38 74 -95 74
c-91 0 -140 -66 -140 -204c0 -137 40 -201 140 -201z" />
    <glyph glyph-name="uni025D" unicode="&#x25d;" horiz-adv-x="709" 
d="M693 410l36 -59c-25 -19 -63 -38 -118 -38c-90 0 -141 50 -141 132v8l-57 -31c1 -8 2 -16 2 -25c0 -59 -32 -95 -106 -115c85 -14 134 -50 134 -127c0 -114 -102 -167 -225 -167c-88 0 -152 26 -203 66l48 57c45 -32 88 -49 152 -49c68 0 129 20 129 94
c0 66 -61 83 -138 83h-70l6 72h54c69 0 124 23 124 82c0 56 -48 74 -105 74c-59 0 -97 -17 -136 -43l-44 55c52 39 110 60 190 60c62 0 121 -20 157 -57l86 45h87v-70c0 -51 25 -70 64 -70c33 0 51 9 74 23z" />
    <glyph glyph-name="uni0258" unicode="&#x258;" horiz-adv-x="544" 
d="M269 539c148 0 218 -112 218 -281c0 -167 -87 -270 -233 -270c-73 0 -132 25 -184 66l40 55c46 -32 85 -46 147 -46c76 0 125 47 132 169h-336c-1 12 -2 29 -2 47c0 161 78 260 218 260zM142 306v-6h247c-5 121 -40 166 -122 166c-81 0 -125 -57 -125 -160z" />
    <glyph glyph-name="uni0283" unicode="&#x283;" horiz-adv-x="282" 
d="M246 750c53 0 90 -19 115 -38l-36 -59c-23 14 -41 23 -74 23c-39 0 -64 -21 -64 -74v-659c0 -103 -60 -156 -151 -156c-53 0 -90 19 -115 38l36 58c23 -13 41 -22 74 -22c39 0 64 21 64 74v659c0 104 59 156 151 156z" />
    <glyph glyph-name="uni0286" unicode="&#x286;" horiz-adv-x="304" 
d="M273 676c-39 0 -64 -21 -64 -74v-75l1 -536c40 -10 74 -22 112 -39l-22 -50c-34 13 -58 23 -94 32c-15 -99 -76 -147 -167 -147c-80 0 -129 43 -129 107c0 76 58 119 148 119c25 0 43 -1 59 -3v584c0 104 59 156 151 156c53 0 90 -19 115 -38l-36 -59
c-23 14 -41 23 -74 23zM38 -150c55 0 76 32 79 101c-15 2 -35 4 -58 4c-50 0 -77 -19 -77 -57c0 -31 19 -48 56 -48z" />
    <glyph glyph-name="uni01AA" unicode="&#x1aa;" horiz-adv-x="308" 
d="M351 -117l36 -58c-25 -19 -62 -38 -115 -38c-91 0 -151 53 -151 156v543c-16 -6 -34 -10 -56 -10c-73 0 -130 52 -130 136c0 85 60 138 137 138c82 0 141 -45 141 -146v-669c0 -53 25 -74 64 -74c33 0 51 9 74 22zM81 548c12 0 25 2 40 7v57c0 45 -18 66 -47 66
c-32 0 -47 -25 -47 -64c0 -45 18 -66 54 -66z" />
    <glyph glyph-name="uni0285" unicode="&#x285;" horiz-adv-x="440" 
d="M404 84l36 -58c-25 -19 -62 -38 -115 -38c-91 0 -151 53 -151 156v247c0 53 -25 74 -64 74c-33 0 -51 -9 -74 -23l-36 59c25 19 62 38 115 38c92 0 151 -52 151 -156v-247c0 -53 25 -74 64 -74c33 0 51 9 74 22z" />
    <glyph glyph-name="uni0247" unicode="&#x247;" horiz-adv-x="544" 
d="M491 232h-211l-43 -157c18 -8 38 -12 60 -12c52 0 91 14 137 46l40 -55c-52 -41 -111 -66 -184 -66c-27 0 -52 3 -74 10l-19 -68l-43 11l20 74c-75 41 -117 126 -117 243c0 164 83 281 219 281c14 0 28 -1 41 -3l16 59l43 -11l-16 -59c87 -33 133 -120 133 -246
c0 -18 -1 -35 -2 -47zM278 466c-70 0 -116 -49 -123 -166h97l45 165c-6 1 -12 1 -19 1zM402 306c0 73 -21 123 -62 146l-42 -152h104v6zM199 104l35 128h-79c4 -60 20 -101 44 -128z" />
    <glyph glyph-name="uni1EBD" unicode="&#x1ebd;" horiz-adv-x="544" 
d="M221 704c-23 0 -37 -16 -53 -46l-56 28c23 49 59 88 109 88c30 0 50 -13 69 -27c15 -11 30 -21 47 -21c20 0 35 14 53 44l56 -28c-26 -57 -64 -86 -109 -86c-28 0 -50 13 -68 26c-16 12 -31 22 -48 22zM493 279c0 -18 -1 -35 -2 -47h-336c9 -122 66 -169 142 -169
c52 0 91 14 137 46l40 -55c-52 -41 -111 -66 -184 -66c-147 0 -233 103 -233 270c0 164 83 281 219 281c142 0 217 -99 217 -260zM402 300v6c0 103 -41 160 -124 160c-70 0 -116 -49 -123 -166h247z" />
    <glyph glyph-name="uni01DD" unicode="&#x1dd;" horiz-adv-x="553" 
d="M268 539c157 0 228 -108 228 -275c0 -170 -88 -276 -226 -276c-133 0 -219 97 -219 260c0 17 0 33 2 47h345c-7 119 -52 169 -132 169c-48 0 -90 -12 -135 -49l-42 61c48 39 108 63 179 63zM270 61c77 0 124 44 129 166h-258v-8c0 -101 49 -158 129 -158z" />
    <glyph glyph-name="uni0259" unicode="&#x259;" horiz-adv-x="553" 
d="M268 539c157 0 228 -108 228 -275c0 -170 -88 -276 -226 -276c-133 0 -219 97 -219 260c0 17 0 33 2 47h345c-7 119 -52 169 -132 169c-48 0 -90 -12 -135 -49l-42 61c48 39 108 63 179 63zM270 61c77 0 124 44 129 166h-258v-8c0 -101 49 -158 129 -158z" />
    <glyph glyph-name="uni025A" unicode="&#x25a;" horiz-adv-x="774" 
d="M758 410l36 -59c-25 -19 -63 -38 -118 -38c-90 0 -141 50 -141 132v8l-67 -36c19 -42 28 -94 28 -153c0 -170 -88 -276 -226 -276c-133 0 -219 97 -219 260c0 17 0 33 2 47h345c-7 119 -52 169 -132 169c-48 0 -90 -12 -135 -49l-42 61c48 39 108 63 179 63
c73 0 127 -23 164 -65l101 53h87v-70c0 -51 25 -70 64 -70c33 0 51 9 74 23zM270 61c77 0 124 44 129 166h-258v-8c0 -101 49 -158 129 -158z" />
    <glyph glyph-name="uni0292" unicode="&#x292;" horiz-adv-x="476" 
d="M216 206c151 0 235 -68 235 -199c0 -132 -95 -220 -240 -220c-94 0 -159 31 -211 90l54 50c46 -45 91 -65 155 -65c93 0 143 51 143 147c0 93 -45 129 -156 129h-79v67l205 246h-291v76h396v-70l-214 -251h3z" />
    <glyph glyph-name="uni01EF" unicode="&#x1ef;" horiz-adv-x="476" 
d="M260 627h-61l-136 113l40 45l126 -84l127 84l39 -45zM216 206c151 0 235 -68 235 -199c0 -132 -95 -220 -240 -220c-94 0 -159 31 -211 90l54 50c46 -45 91 -65 155 -65c93 0 143 51 143 147c0 93 -45 129 -156 129h-79v67l205 246h-291v76h396v-70l-214 -251h3z" />
    <glyph glyph-name="uni0293" unicode="&#x293;" horiz-adv-x="476" 
d="M451 6c0 -103 -57 -179 -168 -207l24 -53l-64 -25l-30 67c-11 -1 -22 -1 -33 -1c-148 0 -214 49 -214 132c0 65 48 111 118 111c80 0 121 -42 168 -161c72 17 100 64 100 137c0 96 -45 132 -156 132h-79v67l205 246h-291v76h396v-70l-214 -251h3c151 0 235 -68 235 -200z
M45 -79c0 -41 36 -59 135 -59c-35 80 -55 101 -91 101c-28 0 -44 -16 -44 -42z" />
    <glyph glyph-name="uni01B9" unicode="&#x1b9;" horiz-adv-x="476" 
d="M424 -74l52 -49c-54 -59 -119 -90 -214 -90c-141 0 -237 87 -237 207c0 133 87 212 235 212h3l-214 251v70h396v-76h-289l203 -246v-67h-79c-111 0 -156 -46 -156 -142c0 -83 50 -134 140 -134c67 0 112 20 160 64z" />
    <glyph glyph-name="uni01BA" unicode="&#x1ba;" horiz-adv-x="470" 
d="M161 -215c-88 37 -133 82 -133 140c0 67 52 103 166 116c102 12 152 32 152 95c0 47 -32 68 -84 68h-151v67l193 180h-279v76h391v-70l-204 -185h55c108 0 178 -47 178 -137c0 -103 -86 -151 -201 -165c-98 -12 -122 -24 -122 -53c0 -26 26 -48 73 -72z" />
    <glyph glyph-name="f" unicode="f" horiz-adv-x="335" 
d="M274 676c-58 0 -78 -25 -78 -76v-73h128l-10 -71h-118v-456h-92v456h-94v71h94v72c0 88 58 151 165 151c50 0 84 -9 126 -27l-29 -67c-34 15 -65 20 -92 20z" />
    <glyph glyph-name="f_short" horiz-adv-x="335" 
d="M274 676c-58 0 -78 -25 -78 -76v-73h108l-10 -71h-98v-456h-92v456h-94v71h94v72c0 88 58 151 165 151c31 0 56 -4 81 -11l-19 -71c-21 6 -40 8 -57 8z" />
    <glyph glyph-name="uni1E1F" unicode="&#x1e1f;" horiz-adv-x="335" 
d="M259 831c-38 0 -64 27 -64 62c0 36 26 63 64 63c39 0 65 -27 65 -63c0 -35 -26 -62 -65 -62zM274 676c-58 0 -78 -25 -78 -76v-73h128l-10 -71h-118v-456h-92v456h-94v71h94v72c0 88 58 151 165 151c50 0 84 -9 126 -27l-29 -67c-34 15 -65 20 -92 20z" />
    <glyph glyph-name="fdotaccent_short" horiz-adv-x="335" 
d="M259 831c-38 0 -64 27 -64 62c0 36 26 63 64 63c39 0 65 -27 65 -63c0 -35 -26 -62 -65 -62zM274 676c-58 0 -78 -25 -78 -76v-73h108l-10 -71h-98v-456h-92v456h-94v71h94v72c0 88 58 151 165 151c31 0 56 -4 81 -11l-19 -71c-21 6 -40 8 -57 8z" />
    <glyph glyph-name="uni02A9" unicode="&#x2a9;" horiz-adv-x="870" 
d="M781 1h3v-58c0 -103 -60 -156 -151 -156c-53 0 -90 19 -115 38l36 58c23 -13 41 -22 74 -22c39 0 64 21 64 74v65h-3v365c0 79 -32 102 -83 102c-59 0 -99 -37 -134 -93v-374h-92v456h-184v-456h-92v456h-94v71h94v72c0 88 58 151 165 151c50 0 84 -9 126 -27l-29 -67
c-34 15 -65 20 -92 20c-58 0 -78 -25 -78 -76v-73h263l8 -78c36 54 92 90 161 90c97 0 153 -61 153 -161v-377z" />
    <glyph glyph-name="g" unicode="g" horiz-adv-x="520" 
d="M493 586l27 -83c-44 -14 -94 -16 -154 -16c62 -28 93 -72 93 -133c0 -104 -75 -179 -201 -179c-24 0 -45 3 -67 10c-15 -11 -26 -30 -26 -49c0 -24 15 -43 69 -43h84c108 0 180 -62 180 -146c0 -102 -84 -160 -247 -160c-172 0 -226 53 -226 160h83c0 -60 27 -88 143 -88
c114 0 154 29 154 82c0 50 -40 75 -106 75h-83c-94 0 -136 47 -136 100c0 34 20 68 58 93c-61 32 -89 78 -89 146c0 108 87 184 203 184c131 -3 179 19 241 47zM252 473c-71 0 -109 -49 -109 -118c0 -70 39 -119 111 -119s111 44 111 120c0 77 -38 117 -113 117z" />
    <glyph glyph-name="g.map" horiz-adv-x="579" 
d="M413 527h79v-526c0 -140 -73 -214 -223 -214c-82 0 -154 29 -187 49l31 64c34 -20 93 -37 151 -37c101 0 136 39 136 132v95c-34 -51 -86 -82 -150 -82c-128 0 -199 109 -199 263c0 151 78 268 207 268c66 0 113 -32 149 -72zM270 81c59 0 95 29 130 78v238
c-33 42 -70 69 -122 69c-79 0 -128 -66 -128 -193c0 -129 44 -192 120 -192z" />
    <glyph glyph-name="g.ss05" horiz-adv-x="579" 
d="M413 527h79v-526c0 -140 -73 -214 -223 -214c-82 0 -154 29 -187 49l31 64c34 -20 93 -37 151 -37c101 0 136 39 136 132v95c-34 -51 -86 -82 -150 -82c-128 0 -199 109 -199 263c0 151 78 268 207 268c66 0 113 -32 149 -72zM270 81c59 0 95 29 130 78v238
c-33 42 -70 69 -122 69c-79 0 -128 -66 -128 -193c0 -129 44 -192 120 -192z" />
    <glyph glyph-name="uni01F5" unicode="&#x1f5;" horiz-adv-x="520" 
d="M339 801l41 -77l-212 -86l-28 49zM493 586l27 -83c-44 -14 -94 -16 -154 -16c62 -28 93 -72 93 -133c0 -104 -75 -179 -201 -179c-24 0 -45 3 -67 10c-15 -11 -26 -30 -26 -49c0 -24 15 -43 69 -43h84c108 0 180 -62 180 -146c0 -102 -84 -160 -247 -160
c-172 0 -226 53 -226 160h83c0 -60 27 -88 143 -88c114 0 154 29 154 82c0 50 -40 75 -106 75h-83c-94 0 -136 47 -136 100c0 34 20 68 58 93c-61 32 -89 78 -89 146c0 108 87 184 203 184c131 -3 179 19 241 47zM252 473c-71 0 -109 -49 -109 -118c0 -70 39 -119 111 -119
s111 44 111 120c0 77 -38 117 -113 117z" />
    <glyph glyph-name="uni0263" unicode="&#x263;" horiz-adv-x="492" 
d="M482 527l-184 -463c42 -72 64 -120 64 -178c0 -61 -41 -99 -114 -99c-75 0 -114 38 -114 98c0 49 22 100 64 177l-188 465h98l140 -403l139 403h95zM280 -109c0 36 -13 67 -32 109c-18 -42 -32 -73 -32 -109c0 -22 11 -35 32 -35s32 13 32 35z" />
    <glyph glyph-name="gbreve" unicode="&#x11f;" horiz-adv-x="520" 
d="M258 643c-80 0 -142 49 -150 133l61 13c14 -50 42 -76 89 -76s78 26 92 76l61 -13c-8 -84 -72 -133 -153 -133zM493 586l27 -83c-44 -14 -94 -16 -154 -16c62 -28 93 -72 93 -133c0 -104 -75 -179 -201 -179c-24 0 -45 3 -67 10c-15 -11 -26 -30 -26 -49
c0 -24 15 -43 69 -43h84c108 0 180 -62 180 -146c0 -102 -84 -160 -247 -160c-172 0 -226 53 -226 160h83c0 -60 27 -88 143 -88c114 0 154 29 154 82c0 50 -40 75 -106 75h-83c-94 0 -136 47 -136 100c0 34 20 68 58 93c-61 32 -89 78 -89 146c0 108 87 184 203 184
c131 -3 179 19 241 47zM252 473c-71 0 -109 -49 -109 -118c0 -70 39 -119 111 -119s111 44 111 120c0 77 -38 117 -113 117z" />
    <glyph glyph-name="gcaron" unicode="&#x1e7;" horiz-adv-x="520" 
d="M387 785l39 -45l-135 -113h-61l-136 113l40 45l126 -84zM493 586l27 -83c-44 -14 -94 -16 -154 -16c62 -28 93 -72 93 -133c0 -104 -75 -179 -201 -179c-24 0 -45 3 -67 10c-15 -11 -26 -30 -26 -49c0 -24 15 -43 69 -43h84c108 0 180 -62 180 -146
c0 -102 -84 -160 -247 -160c-172 0 -226 53 -226 160h83c0 -60 27 -88 143 -88c114 0 154 29 154 82c0 50 -40 75 -106 75h-83c-94 0 -136 47 -136 100c0 34 20 68 58 93c-61 32 -89 78 -89 146c0 108 87 184 203 184c131 -3 179 19 241 47zM252 473
c-71 0 -109 -49 -109 -118c0 -70 39 -119 111 -119s111 44 111 120c0 77 -38 117 -113 117z" />
    <glyph glyph-name="gcircumflex" unicode="&#x11d;" horiz-adv-x="520" 
d="M133 634l-39 45l135 113h61l136 -113l-40 -45l-126 84zM493 586l27 -83c-44 -14 -94 -16 -154 -16c62 -28 93 -72 93 -133c0 -104 -75 -179 -201 -179c-24 0 -45 3 -67 10c-15 -11 -26 -30 -26 -49c0 -24 15 -43 69 -43h84c108 0 180 -62 180 -146
c0 -102 -84 -160 -247 -160c-172 0 -226 53 -226 160h83c0 -60 27 -88 143 -88c114 0 154 29 154 82c0 50 -40 75 -106 75h-83c-94 0 -136 47 -136 100c0 34 20 68 58 93c-61 32 -89 78 -89 146c0 108 87 184 203 184c131 -3 179 19 241 47zM252 473
c-71 0 -109 -49 -109 -118c0 -70 39 -119 111 -119s111 44 111 120c0 77 -38 117 -113 117z" />
    <glyph glyph-name="uni0123" unicode="&#x123;" horiz-adv-x="520" 
d="M261 583c-32 0 -57 24 -57 56c0 17 5 33 26 77l41 86h53l-29 -116c14 -12 24 -28 24 -47c0 -32 -26 -56 -58 -56zM493 586l27 -83c-44 -14 -94 -16 -154 -16c62 -28 93 -72 93 -133c0 -104 -75 -179 -201 -179c-24 0 -45 3 -67 10c-15 -11 -26 -30 -26 -49
c0 -24 15 -43 69 -43h84c108 0 180 -62 180 -146c0 -102 -84 -160 -247 -160c-172 0 -226 53 -226 160h83c0 -60 27 -88 143 -88c114 0 154 29 154 82c0 50 -40 75 -106 75h-83c-94 0 -136 47 -136 100c0 34 20 68 58 93c-61 32 -89 78 -89 146c0 108 87 184 203 184
c131 -3 179 19 241 47zM252 473c-71 0 -109 -49 -109 -118c0 -70 39 -119 111 -119s111 44 111 120c0 77 -38 117 -113 117z" />
    <glyph glyph-name="gdotaccent" unicode="&#x121;" horiz-adv-x="520" 
d="M259 780c39 0 65 -27 65 -63c0 -35 -26 -62 -65 -62c-38 0 -64 27 -64 62c0 36 26 63 64 63zM493 586l27 -83c-44 -14 -94 -16 -154 -16c62 -28 93 -72 93 -133c0 -104 -75 -179 -201 -179c-24 0 -45 3 -67 10c-15 -11 -26 -30 -26 -49c0 -24 15 -43 69 -43h84
c108 0 180 -62 180 -146c0 -102 -84 -160 -247 -160c-172 0 -226 53 -226 160h83c0 -60 27 -88 143 -88c114 0 154 29 154 82c0 50 -40 75 -106 75h-83c-94 0 -136 47 -136 100c0 34 20 68 58 93c-61 32 -89 78 -89 146c0 108 87 184 203 184c131 -3 179 19 241 47zM252 473
c-71 0 -109 -49 -109 -118c0 -70 39 -119 111 -119s111 44 111 120c0 77 -38 117 -113 117z" />
    <glyph glyph-name="uni0260" unicode="&#x260;" horiz-adv-x="587" 
d="M551 750c53 0 90 -19 115 -38l-36 -59c-23 14 -41 23 -74 23c-39 0 -64 -21 -64 -74v-599c0 -140 -73 -216 -223 -216c-82 0 -135 24 -165 44l31 62c31 -16 71 -32 129 -32c101 0 136 41 136 134v95c-34 -51 -86 -82 -150 -82c-128 0 -199 109 -199 263
c0 151 78 268 207 268c62 0 107 -28 142 -65v120c0 104 59 156 151 156zM270 81c59 0 95 29 130 78v238c-33 42 -70 69 -122 69c-79 0 -128 -66 -128 -193c0 -129 44 -192 120 -192z" />
    <glyph glyph-name="uni01BE" unicode="&#x1be;" horiz-adv-x="513" 
d="M278 434c85 -18 178 -79 178 -222c0 -127 -87 -223 -227 -223c-80 0 -140 28 -199 85l50 52c46 -41 90 -63 147 -63c90 0 131 59 131 151c0 98 -44 140 -125 161l-71 16v154h-78v70h78v123l92 10v-133h108v-70h-108v-108z" />
    <glyph glyph-name="uni0294" unicode="&#x294;" horiz-adv-x="441" 
d="M132 0v348l61 18c72 21 125 58 125 159c0 92 -41 151 -131 151c-57 0 -101 -22 -147 -63l-50 52c59 57 119 85 201 85c141 0 225 -93 225 -223c0 -146 -94 -197 -178 -221l-14 -4v-302h-92z" />
    <glyph glyph-name="uni0296" unicode="&#x296;" horiz-adv-x="513" 
d="M162 738l92 10v-311l24 -3c85 -18 178 -79 178 -222c0 -127 -87 -223 -227 -223c-80 0 -140 28 -199 85l50 52c46 -41 90 -63 147 -63c90 0 131 59 131 151c0 98 -44 140 -125 161l-71 16v347z" />
    <glyph glyph-name="uni0295" unicode="&#x295;" horiz-adv-x="442" 
d="M310 0h-92v302l-14 4c-85 24 -179 75 -179 220c0 132 90 224 230 224c80 0 140 -29 197 -85l-50 -52c-46 41 -87 63 -144 63c-88 0 -135 -58 -135 -151c0 -101 53 -138 126 -159l61 -18v-348z" />
    <glyph glyph-name="uni0242" unicode="&#x242;" horiz-adv-x="441" 
d="M120 0v197l72 19c68 18 110 56 110 129c0 65 -39 116 -111 116c-61 0 -95 -21 -135 -53l-51 56c52 47 105 75 189 75c128 0 207 -85 207 -192c0 -118 -81 -170 -164 -190l-25 -6v-151h-92z" />
    <glyph glyph-name="uni02A1" unicode="&#x2a1;" horiz-adv-x="441" 
d="M238 306l-14 -4v-87h108v-70h-108v-145h-92v145h-68v70h68v133l61 18c72 21 125 58 125 159c0 92 -41 151 -131 151c-57 0 -101 -22 -147 -63l-50 52c59 57 119 85 201 85c141 0 225 -93 225 -223c0 -146 -94 -197 -178 -221z" />
    <glyph glyph-name="uni02A2" unicode="&#x2a2;" horiz-adv-x="442" 
d="M258 676c-88 0 -135 -58 -135 -151c0 -101 53 -138 126 -159l61 -18v-133h68v-70h-68v-145h-92v145h-108v70h108v87l-14 4c-85 24 -179 75 -179 220c0 132 90 224 230 224c80 0 140 -29 197 -85l-50 -52c-46 41 -87 63 -144 63z" />
    <glyph glyph-name="uni0261" unicode="&#x261;" horiz-adv-x="579" 
d="M413 527h79v-526c0 -140 -73 -214 -223 -214c-82 0 -154 29 -187 49l31 64c34 -20 93 -37 151 -37c101 0 136 39 136 132v95c-34 -51 -86 -82 -150 -82c-128 0 -199 109 -199 263c0 151 78 268 207 268c66 0 113 -32 149 -72zM270 81c59 0 95 29 130 78v238
c-33 42 -70 69 -122 69c-79 0 -128 -66 -128 -193c0 -129 44 -192 120 -192z" />
    <glyph glyph-name="uni01E5" unicode="&#x1e5;" horiz-adv-x="520" 
d="M548 -23v-63h-53c-17 -81 -99 -127 -244 -127c-172 0 -226 53 -226 160h83c0 -60 27 -88 143 -88c97 0 145 19 159 55h-145v63h142c-16 30 -55 44 -108 44h-83c-94 0 -136 42 -136 95c0 34 20 68 58 93c-61 32 -89 78 -89 146c0 108 87 184 203 184c131 -3 179 19 241 47
l27 -83c-44 -14 -94 -16 -154 -16c62 -28 93 -72 93 -133c0 -104 -75 -179 -201 -179c-24 0 -45 3 -67 10c-15 -11 -26 -30 -26 -49c0 -24 15 -43 69 -43h84c95 0 162 -48 177 -116h53zM252 473c-71 0 -109 -49 -109 -118c0 -70 39 -119 111 -119s111 44 111 120
c0 77 -38 117 -113 117z" />
    <glyph glyph-name="uni021D" unicode="&#x21d;" horiz-adv-x="474" 
d="M204 539c99 0 191 -49 191 -147c0 -64 -32 -100 -106 -120c85 -2 134 -46 134 -114c0 -117 -132 -210 -357 -260l-13 67c182 54 271 107 271 190c0 57 -37 74 -98 74h-100l6 72h59c59 0 109 22 109 86c0 61 -48 80 -105 80c-59 0 -97 -17 -136 -42l-44 54
c52 39 112 60 189 60z" />
    <glyph glyph-name="h" unicode="h" horiz-adv-x="579" 
d="M340 539c96 0 153 -62 153 -161v-378h-92v365c0 79 -34 102 -84 102c-57 0 -98 -37 -133 -92v-375h-92v738l92 10v-294c38 52 90 85 156 85z" />
    <glyph glyph-name="hbar" unicode="&#x127;" horiz-adv-x="585" 
d="M346 539c96 0 153 -62 153 -161v-378h-92v365c0 79 -34 102 -84 102c-57 0 -98 -37 -133 -92v-375h-92v606h-76v70h76v62l92 10v-72h151v-70h-151v-152c38 52 90 85 156 85z" />
    <glyph glyph-name="uni021F" unicode="&#x21f;" horiz-adv-x="579" 
d="M320 804h-61l-136 110l40 45l126 -81l127 81l39 -45zM340 539c96 0 153 -62 153 -161v-378h-92v365c0 79 -34 102 -84 102c-57 0 -98 -37 -133 -92v-375h-92v738l92 10v-294c38 52 90 85 156 85z" />
    <glyph glyph-name="hcircumflex" unicode="&#x125;" horiz-adv-x="579" 
d="M288 890l-126 -81l-40 45l136 110h61l135 -110l-39 -45zM340 539c96 0 153 -62 153 -161v-378h-92v365c0 79 -34 102 -84 102c-57 0 -98 -37 -133 -92v-375h-92v738l92 10v-294c38 52 90 85 156 85z" />
    <glyph glyph-name="uni1E25" unicode="&#x1e25;" horiz-adv-x="579" 
d="M340 539c96 0 153 -62 153 -161v-378h-92v365c0 79 -34 102 -84 102c-57 0 -98 -37 -133 -92v-375h-92v738l92 10v-294c38 52 90 85 156 85zM293 -74c38 0 64 -27 64 -62c0 -36 -26 -63 -64 -63c-39 0 -65 27 -65 63c0 35 26 62 65 62z" />
    <glyph glyph-name="uni0267" unicode="&#x267;" horiz-adv-x="582" 
d="M493 1h3v-58c0 -103 -60 -156 -151 -156c-53 0 -90 19 -115 38l36 58c23 -13 41 -22 74 -22c39 0 64 21 64 74v65h-3v365c0 79 -34 102 -84 102c-57 0 -98 -37 -133 -92v-375h-92v599c0 88 58 151 165 151c50 0 84 -9 126 -27l-29 -67c-34 15 -65 20 -92 20
c-58 0 -78 -25 -78 -76v-146c38 52 90 85 156 85c96 0 153 -62 153 -161v-377z" />
    <glyph glyph-name="uni0266" unicode="&#x266;" horiz-adv-x="579" 
d="M340 539c96 0 153 -62 153 -161v-378h-92v365c0 79 -34 102 -84 102c-57 0 -98 -37 -133 -92v-375h-92v599c0 88 58 151 165 151c50 0 84 -9 126 -27l-29 -67c-34 15 -65 20 -92 20c-58 0 -78 -25 -78 -76v-146c38 52 90 85 156 85z" />
    <glyph glyph-name="uni0265" unicode="&#x265;" horiz-adv-x="579" 
d="M395 527h92v-740l-92 11v275c-38 -52 -90 -85 -156 -85c-96 0 -153 62 -153 161v378h92v-365c0 -79 34 -102 84 -102c57 0 98 37 133 92v375z" />
    <glyph glyph-name="uni02AE" unicode="&#x2ae;" horiz-adv-x="679" 
d="M495 527h92v-740l-92 11v275c-38 -52 -90 -85 -156 -85c-96 0 -153 62 -153 161v244c0 53 -25 74 -64 74c-33 0 -51 -9 -74 -22l-36 58c25 19 62 38 115 38c91 0 151 -53 151 -156v-223c0 -79 34 -102 84 -102c57 0 98 37 133 92v375z" />
    <glyph glyph-name="uni02AF" unicode="&#x2af;" horiz-adv-x="682" 
d="M725 -117l36 -58c-25 -19 -62 -38 -115 -38c-91 0 -151 53 -151 156v130c-38 -52 -90 -85 -156 -85c-96 0 -153 62 -153 161v244c0 53 -25 74 -64 74c-33 0 -51 -9 -74 -22l-36 58c25 19 62 38 115 38c91 0 151 -53 151 -156v-223c0 -79 34 -102 84 -102
c57 0 98 37 133 92v375h92v-592c0 -53 25 -74 64 -74c33 0 51 9 74 22z" />
    <glyph glyph-name="uni0195" unicode="&#x195;" horiz-adv-x="882" 
d="M786 527c16 -87 26 -169 26 -272c0 -189 -120 -267 -232 -267c-98 0 -179 60 -179 175v202c0 79 -34 102 -84 102c-57 0 -98 -37 -133 -92v-375h-92v738l92 10v-294c38 52 90 85 156 85c96 0 153 -62 153 -161v-207c0 -74 33 -109 91 -109c59 0 135 44 135 201
c0 75 -7 165 -26 264h93z" />
    <glyph glyph-name="i" unicode="i" horiz-adv-x="276" 
d="M137 780c39 0 65 -27 65 -63c0 -35 -26 -62 -65 -62c-38 0 -64 27 -64 62c0 36 26 63 64 63zM184 527v-527h-92v527h92z" />
    <glyph glyph-name="dotlessi" unicode="&#x131;" horiz-adv-x="276" 
d="M184 527v-527h-92v527h92z" />
    <glyph glyph-name="iacute" unicode="&#xed;" horiz-adv-x="276" 
d="M217 801l41 -77l-212 -86l-28 49zM184 527v-527h-92v527h92z" />
    <glyph glyph-name="iacute.loclHUN" horiz-adv-x="276" 
d="M189 797l72 -47l-131 -153l-45 28zM184 527v-527h-92v527h92z" />
    <glyph glyph-name="ibreve" unicode="&#x12d;" horiz-adv-x="276" 
d="M136 643c-80 0 -142 49 -150 133l61 13c14 -50 42 -76 89 -76s78 26 92 76l61 -13c-8 -84 -72 -133 -153 -133zM184 527v-527h-92v527h92z" />
    <glyph glyph-name="uni01D0" unicode="&#x1d0;" horiz-adv-x="276" 
d="M265 785l39 -45l-135 -113h-61l-136 113l40 45l126 -84zM184 527v-527h-92v527h92z" />
    <glyph glyph-name="icircumflex" unicode="&#xee;" horiz-adv-x="276" 
d="M11 634l-39 45l135 113h61l136 -113l-40 -45l-126 84zM184 527v-527h-92v527h92z" />
    <glyph glyph-name="uni0209" unicode="&#x209;" horiz-adv-x="276" 
d="M23 832l86 -173l-58 -25l-106 157zM175 832l76 -168l-58 -25l-96 152zM184 527v-527h-92v527h92z" />
    <glyph glyph-name="idieresis" unicode="&#xef;" horiz-adv-x="276" 
d="M33 768c32 0 57 -25 57 -57s-25 -57 -57 -57c-33 0 -58 25 -58 57s25 57 58 57zM242 768c33 0 58 -25 58 -57s-25 -57 -58 -57c-32 0 -57 25 -57 57s25 57 57 57zM184 527v-527h-92v527h92z" />
    <glyph glyph-name="uni1E2F" unicode="&#x1e2f;" horiz-adv-x="276" 
d="M220 893l56 -54l-136 -126l-38 35zM33 738c32 0 57 -25 57 -57s-25 -57 -57 -57c-33 0 -58 25 -58 57s25 57 58 57zM242 738c33 0 58 -25 58 -57s-25 -57 -58 -57c-32 0 -57 25 -57 57s25 57 57 57zM184 527v-527h-92v527h92z" />
    <glyph glyph-name="i.loclTRK" horiz-adv-x="276" 
d="M137 780c39 0 65 -27 65 -63c0 -35 -26 -62 -65 -62c-38 0 -64 27 -64 62c0 36 26 63 64 63zM184 527v-527h-92v527h92z" />
    <glyph glyph-name="uni1ECB" unicode="&#x1ecb;" horiz-adv-x="276" 
d="M137 780c39 0 65 -27 65 -63c0 -35 -26 -62 -65 -62c-38 0 -64 27 -64 62c0 36 26 63 64 63zM184 527v-527h-92v527h92zM138 -199c-39 0 -65 27 -65 63c0 35 26 62 65 62c38 0 64 -27 64 -62c0 -36 -26 -63 -64 -63z" />
    <glyph glyph-name="uni1D7B" unicode="&#x1d7b;" horiz-adv-x="276" 
d="M279 325v-78h-95v-247h-92v247h-96v78h96v202h92v-202h95z" />
    <glyph glyph-name="igrave" unicode="&#xec;" horiz-adv-x="276" 
d="M69 801l199 -114l-28 -49l-212 86zM184 527v-527h-92v527h92z" />
    <glyph glyph-name="uni1EC9" unicode="&#x1ec9;" horiz-adv-x="276" 
d="M103 611v94c45 6 71 12 71 43c0 25 -18 36 -44 36c-22 0 -39 -5 -57 -13l-22 51c24 14 53 24 94 24c69 0 108 -35 108 -91c0 -50 -31 -78 -81 -86v-58h-69zM184 527v-527h-92v527h92z" />
    <glyph glyph-name="uni020B" unicode="&#x20b;" horiz-adv-x="276" 
d="M136 760c81 0 145 -49 153 -133l-61 -13c-14 50 -45 76 -92 76s-75 -26 -89 -76l-61 13c8 84 70 133 150 133zM184 527v-527h-92v527h92z" />
    <glyph glyph-name="ij" unicode="&#x133;" horiz-adv-x="553" 
d="M137 780c39 0 65 -27 65 -63c0 -35 -26 -62 -65 -62c-38 0 -64 27 -64 62c0 36 26 63 64 63zM415 780c39 0 65 -27 65 -63c0 -35 -26 -62 -65 -62c-38 0 -64 27 -64 62c0 36 26 63 64 63zM184 527v-527h-92v527h92zM461 527v-495c0 -149 -55 -194 -167 -244l-27 67
c69 32 102 58 102 171v501h92z" />
    <glyph glyph-name="imacron" unicode="&#x12b;" horiz-adv-x="276" 
d="M274 667h-273v69h273v-69zM184 527v-527h-92v527h92z" />
    <glyph glyph-name="iogonek" unicode="&#x12f;" horiz-adv-x="276" 
d="M137 780c39 0 65 -27 65 -63c0 -35 -26 -62 -65 -62c-38 0 -64 27 -64 62c0 36 26 63 64 63zM92 5v522h92v-527c-102 -44 -123 -78 -123 -114c0 -30 15 -48 56 -48c21 0 37 2 61 7l-9 -70c-20 -4 -37 -7 -63 -7c-77 0 -125 43 -125 101c0 57 36 101 111 136z" />
    <glyph glyph-name="uni0269" unicode="&#x269;" horiz-adv-x="294" 
d="M196 -12c-67 0 -110 41 -110 116v423h92v-421c0 -28 9 -42 33 -42c13 0 24 2 34 6l24 -64c-20 -11 -46 -18 -73 -18z" />
    <glyph glyph-name="uni0268" unicode="&#x268;" horiz-adv-x="313" 
d="M156 655c-38 0 -64 27 -64 62c0 36 26 63 64 63c39 0 65 -27 65 -63c0 -35 -26 -62 -65 -62zM298 325v-78h-98v-247h-92v247h-93v78h93v202h92v-202h98z" />
    <glyph glyph-name="uni0268.dotless" horiz-adv-x="313" 
d="M295 325v-78h-98v-247h-92v247h-93v78h93v202h92v-202h98z" />
    <glyph glyph-name="itilde" unicode="&#x129;" horiz-adv-x="276" 
d="M196 656c-28 0 -50 13 -68 26c-16 12 -31 22 -48 22c-23 0 -37 -16 -53 -46l-56 28c23 49 59 88 109 88c30 0 50 -13 69 -27c15 -11 30 -21 47 -21c20 0 35 14 53 44l56 -28c-26 -57 -64 -86 -109 -86zM184 527v-527h-92v527h92z" />
    <glyph glyph-name="j" unicode="j" horiz-adv-x="277" 
d="M139 780c39 0 65 -27 65 -63c0 -35 -26 -62 -65 -62c-38 0 -64 27 -64 62c0 36 26 63 64 63zM185 527v-495c0 -149 -55 -194 -167 -244l-27 67c69 32 102 58 102 171v501h92z" />
    <glyph glyph-name="uni0237" unicode="&#x237;" horiz-adv-x="277" 
d="M185 527v-495c0 -149 -55 -194 -167 -244l-27 67c69 32 102 58 102 171v501h92z" />
    <glyph glyph-name="uni01F0" unicode="&#x1f0;" horiz-adv-x="277" 
d="M267 785l39 -45l-135 -113h-61l-136 113l40 45l126 -84zM185 527v-495c0 -149 -55 -194 -167 -244l-27 67c69 32 102 58 102 171v501h92z" />
    <glyph glyph-name="jcircumflex" unicode="&#x135;" horiz-adv-x="277" 
d="M13 634l-39 45l135 113h61l136 -113l-40 -45l-126 84zM185 527v-495c0 -149 -55 -194 -167 -244l-27 67c69 32 102 58 102 171v501h92z" />
    <glyph glyph-name="uni029D" unicode="&#x29d;" horiz-adv-x="307" 
d="M163 655c-38 0 -64 27 -64 62c0 36 26 63 64 63c39 0 65 -27 65 -63c0 -35 -26 -62 -65 -62zM322 -48l-22 -50c-34 13 -58 23 -94 32c-16 -99 -76 -147 -167 -147c-80 0 -129 43 -129 107c0 76 58 119 148 119c25 0 44 -1 60 -3v517h92v-536c40 -10 74 -22 112 -39z
M38 -150c55 0 76 33 79 100c-15 3 -34 5 -58 5c-50 0 -77 -19 -77 -57c0 -31 19 -48 56 -48z" />
    <glyph glyph-name="uni025F" unicode="&#x25f;" horiz-adv-x="314" 
d="M299 285v-78h-95v-175c0 -149 -55 -194 -167 -244l-27 67c69 32 102 58 102 171v181h-96v78h96v242h92v-242h95z" />
    <glyph glyph-name="uni0284" unicode="&#x284;" horiz-adv-x="313" 
d="M202 70h96v-70h-97c-8 -124 -62 -166 -166 -212l-27 67c65 30 98 55 102 145h-95v70h95v524c0 104 59 156 151 156c53 0 90 -19 115 -38l-36 -59c-23 14 -41 23 -74 23c-39 0 -64 -21 -64 -74v-532z" />
    <glyph glyph-name="uni0249" unicode="&#x249;" horiz-adv-x="314" 
d="M158 655c-38 0 -64 27 -64 62c0 36 26 63 64 63c39 0 65 -27 65 -63c0 -35 -26 -62 -65 -62zM299 285v-78h-95v-175c0 -149 -55 -194 -167 -244l-27 67c69 32 102 58 102 171v181h-96v78h96v242h92v-242h95z" />
    <glyph glyph-name="k" unicode="k" horiz-adv-x="509" 
d="M184 750v-750h-92v739zM487 527l-194 -233l216 -294h-110l-209 288l194 239h103z" />
    <glyph glyph-name="uni01E9" unicode="&#x1e9;" horiz-adv-x="509" 
d="M404 959l39 -45l-135 -110h-61l-136 110l40 45l126 -81zM184 750v-750h-92v739zM487 527l-194 -233l216 -294h-110l-209 288l194 239h103z" />
    <glyph glyph-name="uni0137" unicode="&#x137;" horiz-adv-x="509" 
d="M184 750v-750h-92v739zM487 527l-194 -233l216 -294h-110l-209 288l194 239h103zM255 -77c32 0 57 -24 57 -56c0 -17 -5 -33 -26 -77l-41 -86h-53l29 116c-14 12 -24 28 -24 47c0 32 26 56 58 56z" />
    <glyph glyph-name="kgreenlandic" unicode="&#x138;" horiz-adv-x="506" 
d="M184 527v-527h-92v527h92zM484 527l-194 -243l216 -284h-110l-209 278l194 249h103z" />
    <glyph glyph-name="uni0199" unicode="&#x199;" horiz-adv-x="509" 
d="M262 676c-58 0 -78 -25 -78 -76v-600h-92v599c0 88 58 151 165 151c50 0 84 -9 126 -27l-29 -67c-34 15 -65 20 -92 20zM293 294l216 -294h-110l-209 288l194 239h103z" />
    <glyph glyph-name="uni029E" unicode="&#x29e;" horiz-adv-x="509" 
d="M22 0l194 233l-216 294h110l209 -288l-194 -239h-103zM325 -202v729h92v-740z" />
    <glyph glyph-name="l" unicode="l" horiz-adv-x="294" 
d="M196 -12c-67 0 -110 41 -110 116v635l92 11v-644c0 -28 9 -42 33 -42c13 0 24 2 34 6l24 -64c-20 -11 -46 -18 -73 -18z" />
    <glyph glyph-name="lacute" unicode="&#x13a;" horiz-adv-x="294" 
d="M212 961l40 -77l-216 -79l-24 49zM196 -12c-67 0 -110 41 -110 116v635l92 11v-644c0 -28 9 -42 33 -42c13 0 24 2 34 6l24 -64c-20 -11 -46 -18 -73 -18z" />
    <glyph glyph-name="uni019B" unicode="&#x19b;" horiz-adv-x="490" 
d="M328 473c66 -283 105 -365 177 -451l-86 -34c-71 96 -116 183 -171 445l-139 -445l-89 22l165 487h48c-9 44 -20 77 -34 103l-65 -63l-63 32l81 83c-22 14 -49 23 -84 29l14 71c52 -10 92 -23 124 -45l65 69l54 -47l-69 -71c31 -42 52 -101 72 -185z" />
    <glyph glyph-name="uni019A" unicode="&#x19a;" horiz-adv-x="313" 
d="M298 337h-99v-231c0 -28 9 -42 33 -42c13 0 24 2 34 6l24 -64c-20 -11 -46 -18 -73 -18c-67 0 -110 41 -110 116v233h-92v70h92v332l92 11v-343h99v-70z" />
    <glyph glyph-name="uni026C" unicode="&#x26c;" horiz-adv-x="363" 
d="M266 64c13 0 24 2 34 6l24 -64c-20 -11 -46 -18 -73 -18c-67 0 -110 41 -110 116v150c-89 4 -136 46 -136 111c0 64 52 101 109 101c11 0 20 -1 27 -2v275l92 11v-434h2c28 1 53 6 78 11l11 -56c-29 -7 -62 -12 -89 -14h-2v-151c0 -28 9 -42 33 -42zM78 365
c0 -33 23 -48 63 -49v89c-6 1 -11 2 -21 2c-26 0 -42 -14 -42 -42z" />
    <glyph glyph-name="lcaron" unicode="&#x13e;" horiz-adv-x="294" 
d="M196 -12c-67 0 -110 41 -110 116v635l92 11v-644c0 -28 9 -42 33 -42c13 0 24 2 34 6l24 -64c-20 -11 -46 -18 -73 -18zM277 555l50 184l-83 10l-20 -186z" />
    <glyph glyph-name="uni1E3D" unicode="&#x1e3d;" horiz-adv-x="294" 
d="M196 -12c-67 0 -110 41 -110 116v635l92 11v-644c0 -28 9 -42 33 -42c13 0 24 2 34 6l24 -64c-20 -11 -46 -18 -73 -18zM47 -226l-39 45l135 113h61l136 -113l-40 -45l-126 84z" />
    <glyph glyph-name="uni013C" unicode="&#x13c;" horiz-adv-x="294" 
d="M196 -12c-67 0 -110 41 -110 116v635l92 11v-644c0 -28 9 -42 33 -42c13 0 24 2 34 6l24 -64c-20 -11 -46 -18 -73 -18zM177 -77c32 0 57 -24 57 -56c0 -17 -5 -33 -26 -77l-41 -86h-53l29 116c-14 12 -24 28 -24 47c0 32 26 56 58 56z" />
    <glyph glyph-name="uni0234" unicode="&#x234;" horiz-adv-x="417" 
d="M328 224c65 0 109 -41 109 -103c0 -83 -70 -133 -171 -133c-20 0 -41 2 -62 8l-32 -71l-59 25l34 73c-33 25 -57 65 -57 127v589l92 11v-610c0 -15 1 -27 4 -37l1 3c32 76 71 118 141 118zM266 66c63 0 90 19 90 55c0 23 -12 36 -36 36c-32 0 -51 -20 -83 -90
c8 -1 18 -1 29 -1z" />
    <glyph glyph-name="ldot" unicode="&#x140;" horiz-adv-x="332" 
d="M196 -12c-67 0 -110 41 -110 116v635l92 11v-644c0 -28 9 -42 33 -42c13 0 24 2 34 6l24 -64c-20 -11 -46 -18 -73 -18zM297 440c39 0 65 -27 65 -63c0 -35 -26 -62 -65 -62c-38 0 -64 27 -64 62c0 36 26 63 64 63z" />
    <glyph glyph-name="uni1E37" unicode="&#x1e37;" horiz-adv-x="294" 
d="M196 -12c-67 0 -110 41 -110 116v635l92 11v-644c0 -28 9 -42 33 -42c13 0 24 2 34 6l24 -64c-20 -11 -46 -18 -73 -18zM174 -199c-39 0 -65 27 -65 63c0 35 26 62 65 62c38 0 64 -27 64 -62c0 -36 -26 -63 -64 -63z" />
    <glyph glyph-name="uni026E" unicode="&#x26e;" horiz-adv-x="651" 
d="M391 206c151 0 235 -68 235 -202c0 -129 -95 -217 -240 -217c-89 0 -154 29 -205 83l51 51c46 -40 89 -59 151 -59c93 0 144 51 144 144c0 96 -45 132 -156 132h-79v67l205 246h-319v-345c0 -28 9 -42 33 -42c13 0 24 2 34 6l24 -64c-20 -11 -46 -18 -73 -18
c-67 0 -110 41 -110 116v635l92 11v-223h424v-70l-214 -251h3z" />
    <glyph glyph-name="uni026D" unicode="&#x26d;" horiz-adv-x="279" 
d="M322 -117l36 -58c-25 -19 -62 -38 -115 -38c-91 0 -151 53 -151 156v796l92 11v-815c0 -53 25 -74 64 -74c33 0 51 9 74 22z" />
    <glyph glyph-name="uni01C9" unicode="&#x1c9;" horiz-adv-x="571" 
d="M433 780c39 0 65 -27 65 -63c0 -35 -26 -62 -65 -62c-38 0 -64 27 -64 62c0 36 26 63 64 63zM196 -12c-67 0 -110 41 -110 116v635l92 11v-644c0 -28 9 -42 33 -42c13 0 24 2 34 6l24 -64c-20 -11 -46 -18 -73 -18zM479 527v-495c0 -149 -55 -194 -167 -244l-27 67
c69 32 102 58 102 171v501h92z" />
    <glyph glyph-name="uni026B" unicode="&#x26b;" horiz-adv-x="388" 
d="M269 298c-12 0 -23 1 -33 4v-196c0 -28 9 -42 33 -42c13 0 24 2 34 6l24 -64c-20 -11 -46 -18 -73 -18c-67 0 -110 41 -110 116v246c-10 6 -21 10 -31 10c-33 0 -56 -28 -72 -54l-56 29c21 41 62 97 137 97c8 0 15 -1 22 -2v309l92 11v-364c14 -9 28 -15 42 -15
c30 0 54 22 70 48l55 -30c-21 -41 -61 -91 -134 -91z" />
    <glyph glyph-name="uni02AA" unicode="&#x2aa;" horiz-adv-x="659" 
d="M345 -12c-172 0 -259 77 -259 207v544l92 11v-557c0 -90 50 -129 167 -129c129 0 182 29 182 85c0 38 -13 64 -106 92c-125 38 -151 83 -151 153c0 84 80 145 180 145c64 0 119 -22 169 -60l-39 -58c-47 30 -83 45 -129 45c-48 0 -85 -27 -85 -69c0 -39 22 -60 103 -85
c110 -34 155 -82 155 -156c0 -112 -107 -168 -279 -168z" />
    <glyph glyph-name="lslash" unicode="&#x142;" horiz-adv-x="312" 
d="M217 64c13 0 24 2 34 6l24 -64c-20 -11 -46 -18 -73 -18c-67 0 -110 41 -110 116v194l-47 -29l-35 59l82 51v360l92 11v-315l95 57l33 -60l-128 -78v-248c0 -28 9 -42 33 -42z" />
    <glyph glyph-name="uni02AB" unicode="&#x2ab;" horiz-adv-x="651" 
d="M626 77l-11 -77h-358c-18 -7 -39 -12 -61 -12c-67 0 -110 41 -110 116v635l92 11v-644c0 -28 9 -42 33 -42c13 0 24 2 34 6l273 379h-251v78h356v-70l-281 -380h284z" />
    <glyph glyph-name="m" unicode="m" horiz-adv-x="850" 
d="M621 539c86 0 143 -62 143 -161v-378h-92v365c0 79 -34 102 -74 102c-57 0 -88 -37 -124 -93v-374h-92v365c0 79 -34 102 -74 102c-57 0 -89 -37 -124 -93v-374h-92v527h79l8 -77c35 53 83 89 152 89c65 0 113 -35 133 -95c38 57 86 95 157 95z" />
    <glyph glyph-name="uni1E3F" unicode="&#x1e3f;" horiz-adv-x="850" 
d="M546 724l-212 -86l-28 49l199 114zM621 539c86 0 143 -62 143 -161v-378h-92v365c0 79 -34 102 -74 102c-57 0 -88 -37 -124 -93v-374h-92v365c0 79 -34 102 -74 102c-57 0 -89 -37 -124 -93v-374h-92v527h79l8 -77c35 53 83 89 152 89c65 0 113 -35 133 -95
c38 57 86 95 157 95z" />
    <glyph glyph-name="uni1E41" unicode="&#x1e41;" horiz-adv-x="850" 
d="M425 655c-38 0 -64 27 -64 62c0 36 26 63 64 63c39 0 65 -27 65 -63c0 -35 -26 -62 -65 -62zM621 539c86 0 143 -62 143 -161v-378h-92v365c0 79 -34 102 -74 102c-57 0 -88 -37 -124 -93v-374h-92v365c0 79 -34 102 -74 102c-57 0 -89 -37 -124 -93v-374h-92v527h79
l8 -77c35 53 83 89 152 89c65 0 113 -35 133 -95c38 57 86 95 157 95z" />
    <glyph glyph-name="uni0271" unicode="&#x271;" horiz-adv-x="853" 
d="M764 1h3v-58c0 -103 -60 -156 -151 -156c-53 0 -90 19 -115 38l36 58c23 -13 41 -22 74 -22c39 0 64 21 64 74v65h-3v365c0 79 -34 102 -74 102c-57 0 -88 -37 -124 -93v-374h-92v365c0 79 -34 102 -74 102c-57 0 -89 -37 -124 -93v-374h-92v527h79l8 -77
c35 53 83 89 152 89c65 0 113 -35 133 -95c38 57 86 95 157 95c86 0 143 -62 143 -161v-377z" />
    <glyph glyph-name="uni0270" unicode="&#x270;" horiz-adv-x="854" 
d="M758 109h4v-322l-92 11v278c-35 -53 -83 -88 -151 -88c-65 0 -113 35 -133 95c-38 -57 -86 -95 -157 -95c-86 0 -143 62 -143 161v378h92v-365c0 -79 34 -102 74 -102c57 0 88 37 124 93v374h92v-365c0 -79 34 -102 74 -102c57 0 89 37 124 93v374h92v-418z" />
    <glyph glyph-name="uni026F" unicode="&#x26f;" horiz-adv-x="850" 
d="M666 527h92v-527h-79l-8 77c-35 -53 -83 -89 -152 -89c-65 0 -113 35 -133 95c-38 -57 -86 -95 -157 -95c-86 0 -143 62 -143 161v378h92v-365c0 -79 34 -102 74 -102c57 0 88 37 124 93v374h92v-365c0 -79 34 -102 74 -102c57 0 89 37 124 93v374z" />
    <glyph glyph-name="n" unicode="n" horiz-adv-x="579" 
d="M340 539c97 0 153 -61 153 -161v-378h-92v365c0 79 -32 102 -83 102c-59 0 -99 -37 -134 -93v-374h-92v527h79l8 -78c36 54 92 90 161 90z" />
    <glyph glyph-name="nacute" unicode="&#x144;" horiz-adv-x="579" 
d="M415 724l-212 -86l-28 49l199 114zM340 539c97 0 153 -61 153 -161v-378h-92v365c0 79 -32 102 -83 102c-59 0 -99 -37 -134 -93v-374h-92v527h79l8 -78c36 54 92 90 161 90z" />
    <glyph glyph-name="nacute.loclPLK" horiz-adv-x="579" 
d="M418 750l-131 -153l-45 28l104 172zM340 539c97 0 153 -61 153 -161v-378h-92v365c0 79 -32 102 -83 102c-59 0 -99 -37 -134 -93v-374h-92v527h79l8 -78c36 54 92 90 161 90z" />
    <glyph glyph-name="napostrophe" unicode="&#x149;" horiz-adv-x="688" 
d="M103 753c32 0 57 -24 57 -56c0 -17 -5 -33 -26 -77l-41 -86h-53l29 116c-14 12 -24 28 -24 47c0 32 26 56 58 56zM449 539c97 0 153 -61 153 -161v-378h-92v365c0 79 -32 102 -83 102c-59 0 -99 -37 -134 -93v-374h-92v527h79l8 -78c36 54 92 90 161 90z" />
    <glyph glyph-name="ncaron" unicode="&#x148;" horiz-adv-x="579" 
d="M326 627h-61l-136 113l40 45l126 -84l127 84l39 -45zM340 539c97 0 153 -61 153 -161v-378h-92v365c0 79 -32 102 -83 102c-59 0 -99 -37 -134 -93v-374h-92v527h79l8 -78c36 54 92 90 161 90z" />
    <glyph glyph-name="uni1E4B" unicode="&#x1e4b;" horiz-adv-x="579" 
d="M340 539c97 0 153 -61 153 -161v-378h-92v365c0 79 -32 102 -83 102c-59 0 -99 -37 -134 -93v-374h-92v527h79l8 -78c36 54 92 90 161 90zM259 -68h61l136 -113l-40 -45l-126 84l-127 -84l-39 45z" />
    <glyph glyph-name="uni0146" unicode="&#x146;" horiz-adv-x="579" 
d="M340 539c97 0 153 -61 153 -161v-378h-92v365c0 79 -32 102 -83 102c-59 0 -99 -37 -134 -93v-374h-92v527h79l8 -78c36 54 92 90 161 90zM293 -77c32 0 57 -24 57 -56c0 -17 -5 -33 -26 -77l-41 -86h-53l29 116c-14 12 -24 28 -24 47c0 32 26 56 58 56z" />
    <glyph glyph-name="uni0235" unicode="&#x235;" horiz-adv-x="728" 
d="M639 224c65 0 109 -41 109 -103c0 -83 -70 -133 -171 -133c-20 0 -41 2 -62 8l-32 -71l-59 25l34 73c-33 25 -57 65 -57 127v215c0 79 -32 102 -83 102c-59 0 -99 -37 -134 -93v-374h-92v527h79l8 -78c36 54 92 90 161 90c97 0 153 -61 153 -161v-238c0 -15 1 -27 4 -37
l1 3c32 76 71 118 141 118zM577 66c63 0 90 19 90 55c0 23 -12 36 -36 36c-32 0 -51 -20 -83 -90c8 -1 18 -1 29 -1z" />
    <glyph glyph-name="uni1E45" unicode="&#x1e45;" horiz-adv-x="579" 
d="M294 655c-38 0 -64 27 -64 62c0 36 26 63 64 63c39 0 65 -27 65 -63c0 -35 -26 -62 -65 -62zM340 539c97 0 153 -61 153 -161v-378h-92v365c0 79 -32 102 -83 102c-59 0 -99 -37 -134 -93v-374h-92v527h79l8 -78c36 54 92 90 161 90z" />
    <glyph glyph-name="uni1E47" unicode="&#x1e47;" horiz-adv-x="579" 
d="M340 539c97 0 153 -61 153 -161v-378h-92v365c0 79 -32 102 -83 102c-59 0 -99 -37 -134 -93v-374h-92v527h79l8 -78c36 54 92 90 161 90zM290 -74c38 0 64 -27 64 -62c0 -36 -26 -63 -64 -63c-39 0 -65 27 -65 63c0 35 26 62 65 62z" />
    <glyph glyph-name="uni01F9" unicode="&#x1f9;" horiz-adv-x="579" 
d="M425 687l-28 -49l-212 86l41 77zM340 539c97 0 153 -61 153 -161v-378h-92v365c0 79 -32 102 -83 102c-59 0 -99 -37 -134 -93v-374h-92v527h79l8 -78c36 54 92 90 161 90z" />
    <glyph glyph-name="eng" unicode="&#x14b;" horiz-adv-x="582" 
d="M493 1h3v-58c0 -103 -60 -156 -151 -156c-53 0 -90 19 -115 38l36 58c23 -13 41 -22 74 -22c39 0 64 21 64 74v65h-3v365c0 79 -32 102 -83 102c-59 0 -99 -37 -134 -93v-374h-92v527h79l8 -78c36 54 92 90 161 90c97 0 153 -61 153 -161v-377z" />
    <glyph glyph-name="uni0272" unicode="&#x272;" horiz-adv-x="579" 
d="M340 539c97 0 153 -61 153 -161v-378h-92v365c0 79 -32 102 -83 102c-59 0 -99 -37 -134 -93v-373h3v-58c0 -103 -60 -156 -151 -156c-53 0 -90 19 -115 38l36 58c23 -13 41 -22 74 -22c39 0 64 21 64 74v65h-3v527h79l8 -78c36 54 92 90 161 90z" />
    <glyph glyph-name="uni0273" unicode="&#x273;" horiz-adv-x="586" 
d="M634 -117l36 -58c-25 -19 -62 -38 -115 -38c-91 0 -151 53 -151 156v57h-3v365c0 79 -32 102 -83 102c-59 0 -99 -37 -134 -93v-374h-92v527h79l8 -78c36 54 92 90 161 90c97 0 153 -61 153 -161v-377h3v-66c0 -53 25 -74 64 -74c33 0 51 9 74 22z" />
    <glyph glyph-name="uni01CC" unicode="&#x1cc;" horiz-adv-x="856" 
d="M718 780c39 0 65 -27 65 -63c0 -35 -26 -62 -65 -62c-38 0 -64 27 -64 62c0 36 26 63 64 63zM340 539c97 0 153 -61 153 -161v-378h-92v365c0 79 -32 102 -83 102c-59 0 -99 -37 -134 -93v-374h-92v527h79l8 -78c36 54 92 90 161 90zM672 26v501h92v-495
c0 -149 -55 -194 -167 -244l-27 67c69 32 102 58 102 171z" />
    <glyph glyph-name="uni019E" unicode="&#x19e;" horiz-adv-x="582" 
d="M493 1h3v-214l-92 11v202h-3v365c0 79 -32 102 -83 102c-59 0 -99 -37 -134 -93v-374h-92v527h79l8 -78c36 54 92 90 161 90c97 0 153 -61 153 -161v-377z" />
    <glyph glyph-name="ntilde" unicode="&#xf1;" horiz-adv-x="579" 
d="M237 704c-23 0 -37 -16 -53 -46l-56 28c23 49 59 88 109 88c30 0 50 -13 69 -27c15 -11 30 -21 47 -21c20 0 35 14 53 44l56 -28c-26 -57 -64 -86 -109 -86c-28 0 -50 13 -68 26c-16 12 -31 22 -48 22zM340 539c97 0 153 -61 153 -161v-378h-92v365c0 79 -32 102 -83 102
c-59 0 -99 -37 -134 -93v-374h-92v527h79l8 -78c36 54 92 90 161 90z" />
    <glyph glyph-name="o" unicode="o" horiz-adv-x="584" 
d="M293 539c150 0 234 -108 234 -275c0 -163 -86 -276 -235 -276c-150 0 -235 108 -235 275c0 163 86 276 236 276zM293 465c-88 0 -137 -64 -137 -202c0 -137 48 -201 136 -201s136 64 136 202c0 137 -48 201 -135 201z" />
    <glyph glyph-name="oacute" unicode="&#xf3;" horiz-adv-x="584" 
d="M371 801l41 -77l-212 -86l-28 49zM293 539c150 0 234 -108 234 -275c0 -163 -86 -276 -235 -276c-150 0 -235 108 -235 275c0 163 86 276 236 276zM293 465c-88 0 -137 -64 -137 -202c0 -137 48 -201 136 -201s136 64 136 202c0 137 -48 201 -135 201z" />
    <glyph glyph-name="oacute.loclHUN" horiz-adv-x="584" 
d="M343 797l72 -47l-131 -153l-45 28zM293 539c150 0 234 -108 234 -275c0 -163 -86 -276 -235 -276c-150 0 -235 108 -235 275c0 163 86 276 236 276zM293 465c-88 0 -137 -64 -137 -202c0 -137 48 -201 136 -201s136 64 136 202c0 137 -48 201 -135 201z" />
    <glyph glyph-name="oacute.loclPLK" horiz-adv-x="584" 
d="M343 797l72 -47l-131 -153l-45 28zM293 539c150 0 234 -108 234 -275c0 -163 -86 -276 -235 -276c-150 0 -235 108 -235 275c0 163 86 276 236 276zM293 465c-88 0 -137 -64 -137 -202c0 -137 48 -201 136 -201s136 64 136 202c0 137 -48 201 -135 201z" />
    <glyph glyph-name="uni0275" unicode="&#x275;" horiz-adv-x="584" 
d="M293 539c150 0 234 -108 234 -275c0 -163 -86 -276 -235 -276c-150 0 -235 108 -235 275c0 163 86 276 236 276zM293 466c-80 0 -128 -52 -137 -163h273c-9 111 -57 163 -136 163zM292 61c82 0 130 54 137 172h-274c7 -117 55 -172 137 -172z" />
    <glyph glyph-name="obreve" unicode="&#x14f;" horiz-adv-x="584" 
d="M290 643c-80 0 -142 49 -150 133l61 13c14 -50 42 -76 89 -76s78 26 92 76l61 -13c-8 -84 -72 -133 -153 -133zM293 539c150 0 234 -108 234 -275c0 -163 -86 -276 -235 -276c-150 0 -235 108 -235 275c0 163 86 276 236 276zM293 465c-88 0 -137 -64 -137 -202
c0 -137 48 -201 136 -201s136 64 136 202c0 137 -48 201 -135 201z" />
    <glyph glyph-name="uni01D2" unicode="&#x1d2;" horiz-adv-x="584" 
d="M419 785l39 -45l-135 -113h-61l-136 113l40 45l126 -84zM293 539c150 0 234 -108 234 -275c0 -163 -86 -276 -235 -276c-150 0 -235 108 -235 275c0 163 86 276 236 276zM293 465c-88 0 -137 -64 -137 -202c0 -137 48 -201 136 -201s136 64 136 202
c0 137 -48 201 -135 201z" />
    <glyph glyph-name="ocircumflex" unicode="&#xf4;" horiz-adv-x="584" 
d="M165 634l-39 45l135 113h61l136 -113l-40 -45l-126 84zM293 539c150 0 234 -108 234 -275c0 -163 -86 -276 -235 -276c-150 0 -235 108 -235 275c0 163 86 276 236 276zM293 465c-88 0 -137 -64 -137 -202c0 -137 48 -201 136 -201s136 64 136 202
c0 137 -48 201 -135 201z" />
    <glyph glyph-name="uni1ED1" unicode="&#x1ed1;" horiz-adv-x="584" 
d="M498 892l56 -54l-136 -126l-38 35zM161 589l-40 45l136 110h61l135 -110l-39 -45l-127 81zM293 539c150 0 234 -108 234 -275c0 -163 -86 -276 -235 -276c-150 0 -235 108 -235 275c0 163 86 276 236 276zM293 465c-88 0 -137 -64 -137 -202c0 -137 48 -201 136 -201
s136 64 136 202c0 137 -48 201 -135 201z" />
    <glyph glyph-name="uni1ED9" unicode="&#x1ed9;" horiz-adv-x="584" 
d="M165 634l-39 45l135 113h61l136 -113l-40 -45l-126 84zM293 539c150 0 234 -108 234 -275c0 -163 -86 -276 -235 -276c-150 0 -235 108 -235 275c0 163 86 276 236 276zM293 465c-88 0 -137 -64 -137 -202c0 -137 48 -201 136 -201s136 64 136 202
c0 137 -48 201 -135 201zM292 -199c-39 0 -65 27 -65 63c0 35 26 62 65 62c38 0 64 -27 64 -62c0 -36 -26 -63 -64 -63z" />
    <glyph glyph-name="uni1ED3" unicode="&#x1ed3;" horiz-adv-x="584" 
d="M77 892l118 -145l-38 -35l-136 126zM161 589l-40 45l136 110h61l135 -110l-39 -45l-127 81zM293 539c150 0 234 -108 234 -275c0 -163 -86 -276 -235 -276c-150 0 -235 108 -235 275c0 163 86 276 236 276zM293 465c-88 0 -137 -64 -137 -202c0 -137 48 -201 136 -201
s136 64 136 202c0 137 -48 201 -135 201z" />
    <glyph glyph-name="uni1ED5" unicode="&#x1ed5;" horiz-adv-x="584" 
d="M401 716v94c45 6 71 12 71 43c0 25 -18 36 -44 36c-22 0 -39 -5 -57 -13l-22 51c24 14 53 24 94 24c69 0 108 -35 108 -91c0 -50 -31 -78 -81 -86v-58h-69zM161 589l-40 45l136 110h61l135 -110l-39 -45l-127 81zM293 539c150 0 234 -108 234 -275
c0 -163 -86 -276 -235 -276c-150 0 -235 108 -235 275c0 163 86 276 236 276zM293 465c-88 0 -137 -64 -137 -202c0 -137 48 -201 136 -201s136 64 136 202c0 137 -48 201 -135 201z" />
    <glyph glyph-name="uni1ED7" unicode="&#x1ed7;" horiz-adv-x="584" 
d="M346 783c-28 0 -50 13 -68 26c-16 12 -31 22 -48 22c-23 0 -37 -16 -53 -46l-56 28c23 49 59 88 109 88c30 0 50 -13 69 -27c15 -11 30 -21 47 -21c20 0 35 14 53 44l56 -28c-26 -57 -64 -86 -109 -86zM161 579l-40 45l136 110h61l135 -110l-39 -45l-127 81zM293 539
c150 0 234 -108 234 -275c0 -163 -86 -276 -235 -276c-150 0 -235 108 -235 275c0 163 86 276 236 276zM293 465c-88 0 -137 -64 -137 -202c0 -137 48 -201 136 -201s136 64 136 202c0 137 -48 201 -135 201z" />
    <glyph glyph-name="uni020D" unicode="&#x20d;" horiz-adv-x="584" 
d="M177 832l86 -173l-58 -25l-106 157zM329 832l76 -168l-58 -25l-96 152zM293 539c150 0 234 -108 234 -275c0 -163 -86 -276 -235 -276c-150 0 -235 108 -235 275c0 163 86 276 236 276zM293 465c-88 0 -137 -64 -137 -202c0 -137 48 -201 136 -201s136 64 136 202
c0 137 -48 201 -135 201z" />
    <glyph glyph-name="odieresis" unicode="&#xf6;" horiz-adv-x="584" 
d="M187 768c32 0 57 -25 57 -57s-25 -57 -57 -57c-33 0 -58 25 -58 57s25 57 58 57zM396 768c33 0 58 -25 58 -57s-25 -57 -58 -57c-32 0 -57 25 -57 57s25 57 57 57zM293 539c150 0 234 -108 234 -275c0 -163 -86 -276 -235 -276c-150 0 -235 108 -235 275
c0 163 86 276 236 276zM293 465c-88 0 -137 -64 -137 -202c0 -137 48 -201 136 -201s136 64 136 202c0 137 -48 201 -135 201z" />
    <glyph glyph-name="uni022B" unicode="&#x22b;" horiz-adv-x="584" 
d="M430 798h-273v69h273v-69zM187 738c32 0 57 -25 57 -57s-25 -57 -57 -57c-33 0 -58 25 -58 57s25 57 58 57zM396 738c33 0 58 -25 58 -57s-25 -57 -58 -57c-32 0 -57 25 -57 57s25 57 57 57zM293 539c150 0 234 -108 234 -275c0 -163 -86 -276 -235 -276
c-150 0 -235 108 -235 275c0 163 86 276 236 276zM293 465c-88 0 -137 -64 -137 -202c0 -137 48 -201 136 -201s136 64 136 202c0 137 -48 201 -135 201z" />
    <glyph glyph-name="uni022F" unicode="&#x22f;" horiz-adv-x="584" 
d="M291 780c39 0 65 -27 65 -63c0 -35 -26 -62 -65 -62c-38 0 -64 27 -64 62c0 36 26 63 64 63zM293 539c150 0 234 -108 234 -275c0 -163 -86 -276 -235 -276c-150 0 -235 108 -235 275c0 163 86 276 236 276zM293 465c-88 0 -137 -64 -137 -202c0 -137 48 -201 136 -201
s136 64 136 202c0 137 -48 201 -135 201z" />
    <glyph glyph-name="uni0231" unicode="&#x231;" horiz-adv-x="584" 
d="M427 810h-273v69h273v-69zM290 730c39 0 65 -27 65 -63c0 -35 -26 -62 -65 -62c-38 0 -64 27 -64 62c0 36 26 63 64 63zM293 539c150 0 234 -108 234 -275c0 -163 -86 -276 -235 -276c-150 0 -235 108 -235 275c0 163 86 276 236 276zM293 465c-88 0 -137 -64 -137 -202
c0 -137 48 -201 136 -201s136 64 136 202c0 137 -48 201 -135 201z" />
    <glyph glyph-name="uni1ECD" unicode="&#x1ecd;" horiz-adv-x="584" 
d="M293 539c150 0 234 -108 234 -275c0 -163 -86 -276 -235 -276c-150 0 -235 108 -235 275c0 163 86 276 236 276zM293 465c-88 0 -137 -64 -137 -202c0 -137 48 -201 136 -201s136 64 136 202c0 137 -48 201 -135 201zM292 -199c-39 0 -65 27 -65 63c0 35 26 62 65 62
c38 0 64 -27 64 -62c0 -36 -26 -63 -64 -63z" />
    <glyph glyph-name="ograve" unicode="&#xf2;" horiz-adv-x="584" 
d="M223 801l199 -114l-28 -49l-212 86zM293 539c150 0 234 -108 234 -275c0 -163 -86 -276 -235 -276c-150 0 -235 108 -235 275c0 163 86 276 236 276zM293 465c-88 0 -137 -64 -137 -202c0 -137 48 -201 136 -201s136 64 136 202c0 137 -48 201 -135 201z" />
    <glyph glyph-name="uni1ECF" unicode="&#x1ecf;" horiz-adv-x="584" 
d="M257 611v94c45 6 71 12 71 43c0 25 -18 36 -44 36c-22 0 -39 -5 -57 -13l-22 51c24 14 53 24 94 24c69 0 108 -35 108 -91c0 -50 -31 -78 -81 -86v-58h-69zM293 539c150 0 234 -108 234 -275c0 -163 -86 -276 -235 -276c-150 0 -235 108 -235 275c0 163 86 276 236 276z
M293 465c-88 0 -137 -64 -137 -202c0 -137 48 -201 136 -201s136 64 136 202c0 137 -48 201 -135 201z" />
    <glyph glyph-name="ohorn" unicode="&#x1a1;" horiz-adv-x="595" 
d="M590 525c0 -60 -33 -95 -95 -105c21 -43 32 -96 32 -156c0 -163 -86 -276 -235 -276c-150 0 -235 108 -235 275c0 163 86 276 236 276c71 0 127 -24 166 -67c37 5 54 20 54 48c0 34 -6 52 -14 72l72 15c11 -19 19 -46 19 -82zM292 62c88 0 136 64 136 202
c0 137 -48 201 -135 201c-88 0 -137 -64 -137 -202c0 -137 48 -201 136 -201z" />
    <glyph glyph-name="uni1EDB" unicode="&#x1edb;" horiz-adv-x="595" 
d="M412 724l-212 -86l-28 49l199 114zM590 525c0 -60 -33 -95 -95 -105c21 -43 32 -96 32 -156c0 -163 -86 -276 -235 -276c-150 0 -235 108 -235 275c0 163 86 276 236 276c71 0 127 -24 166 -67c37 5 54 20 54 48c0 34 -6 52 -14 72l72 15c11 -19 19 -46 19 -82zM292 62
c88 0 136 64 136 202c0 137 -48 201 -135 201c-88 0 -137 -64 -137 -202c0 -137 48 -201 136 -201z" />
    <glyph glyph-name="uni1EE3" unicode="&#x1ee3;" horiz-adv-x="595" 
d="M590 525c0 -60 -33 -95 -95 -105c21 -43 32 -96 32 -156c0 -163 -86 -276 -235 -276c-150 0 -235 108 -235 275c0 163 86 276 236 276c71 0 127 -24 166 -67c37 5 54 20 54 48c0 34 -6 52 -14 72l72 15c11 -19 19 -46 19 -82zM292 62c88 0 136 64 136 202
c0 137 -48 201 -135 201c-88 0 -137 -64 -137 -202c0 -137 48 -201 136 -201zM292 -74c38 0 64 -27 64 -62c0 -36 -26 -63 -64 -63c-39 0 -65 27 -65 63c0 35 26 62 65 62z" />
    <glyph glyph-name="uni1EDD" unicode="&#x1edd;" horiz-adv-x="595" 
d="M422 687l-28 -49l-212 86l41 77zM590 525c0 -60 -33 -95 -95 -105c21 -43 32 -96 32 -156c0 -163 -86 -276 -235 -276c-150 0 -235 108 -235 275c0 163 86 276 236 276c71 0 127 -24 166 -67c37 5 54 20 54 48c0 34 -6 52 -14 72l72 15c11 -19 19 -46 19 -82zM292 62
c88 0 136 64 136 202c0 137 -48 201 -135 201c-88 0 -137 -64 -137 -202c0 -137 48 -201 136 -201z" />
    <glyph glyph-name="uni1EDF" unicode="&#x1edf;" horiz-adv-x="595" 
d="M284 784c-22 0 -39 -5 -57 -13l-22 51c24 14 53 24 94 24c69 0 108 -35 108 -91c0 -50 -31 -78 -81 -86v-58h-69v94c45 6 71 12 71 43c0 25 -18 36 -44 36zM590 525c0 -60 -33 -95 -95 -105c21 -43 32 -96 32 -156c0 -163 -86 -276 -235 -276c-150 0 -235 108 -235 275
c0 163 86 276 236 276c71 0 127 -24 166 -67c37 5 54 20 54 48c0 34 -6 52 -14 72l72 15c11 -19 19 -46 19 -82zM292 62c88 0 136 64 136 202c0 137 -48 201 -135 201c-88 0 -137 -64 -137 -202c0 -137 48 -201 136 -201z" />
    <glyph glyph-name="uni1EE1" unicode="&#x1ee1;" horiz-adv-x="595" 
d="M234 704c-23 0 -37 -16 -53 -46l-56 28c23 49 59 88 109 88c30 0 50 -13 69 -27c15 -11 30 -21 47 -21c20 0 35 14 53 44l56 -28c-26 -57 -64 -86 -109 -86c-28 0 -50 13 -68 26c-16 12 -31 22 -48 22zM590 525c0 -60 -33 -95 -95 -105c21 -43 32 -96 32 -156
c0 -163 -86 -276 -235 -276c-150 0 -235 108 -235 275c0 163 86 276 236 276c71 0 127 -24 166 -67c37 5 54 20 54 48c0 34 -6 52 -14 72l72 15c11 -19 19 -46 19 -82zM292 62c88 0 136 64 136 202c0 137 -48 201 -135 201c-88 0 -137 -64 -137 -202
c0 -137 48 -201 136 -201z" />
    <glyph glyph-name="ohungarumlaut" unicode="&#x151;" horiz-adv-x="584" 
d="M302 797l64 -45l-123 -155l-45 28zM454 789l62 -49l-131 -148l-43 31zM293 539c150 0 234 -108 234 -275c0 -163 -86 -276 -235 -276c-150 0 -235 108 -235 275c0 163 86 276 236 276zM293 465c-88 0 -137 -64 -137 -202c0 -137 48 -201 136 -201s136 64 136 202
c0 137 -48 201 -135 201z" />
    <glyph glyph-name="uni01A3" unicode="&#x1a3;" horiz-adv-x="789" 
d="M542 539c102 0 155 -57 155 -160v-592l-92 11v584c0 57 -27 83 -72 83c-22 0 -41 -4 -61 -11c35 -47 55 -112 55 -190c0 -163 -86 -276 -235 -276c-150 0 -235 108 -235 275c0 163 86 276 236 276c48 0 90 -12 125 -34c39 22 78 34 124 34zM292 62c88 0 136 64 136 202
c0 137 -48 201 -135 201c-88 0 -137 -64 -137 -202c0 -137 48 -201 136 -201z" />
    <glyph glyph-name="uni020F" unicode="&#x20f;" horiz-adv-x="584" 
d="M290 760c81 0 145 -49 153 -133l-61 -13c-14 50 -45 76 -92 76s-75 -26 -89 -76l-61 13c8 84 70 133 150 133zM293 539c150 0 234 -108 234 -275c0 -163 -86 -276 -235 -276c-150 0 -235 108 -235 275c0 163 86 276 236 276zM293 465c-88 0 -137 -64 -137 -202
c0 -137 48 -201 136 -201s136 64 136 202c0 137 -48 201 -135 201z" />
    <glyph glyph-name="omacron" unicode="&#x14d;" horiz-adv-x="584" 
d="M428 667h-273v69h273v-69zM293 539c150 0 234 -108 234 -275c0 -163 -86 -276 -235 -276c-150 0 -235 108 -235 275c0 163 86 276 236 276zM293 465c-88 0 -137 -64 -137 -202c0 -137 48 -201 136 -201s136 64 136 202c0 137 -48 201 -135 201z" />
    <glyph glyph-name="uni1E53" unicode="&#x1e53;" horiz-adv-x="584" 
d="M374 898l40 -77l-216 -79l-24 49zM428 617h-273v69h273v-69zM293 539c150 0 234 -108 234 -275c0 -163 -86 -276 -235 -276c-150 0 -235 108 -235 275c0 163 86 276 236 276zM293 465c-88 0 -137 -64 -137 -202c0 -137 48 -201 136 -201s136 64 136 202
c0 137 -48 201 -135 201z" />
    <glyph glyph-name="uni1E51" unicode="&#x1e51;" horiz-adv-x="584" 
d="M203 898l201 -107l-24 -49l-216 79zM428 617h-273v69h273v-69zM293 539c150 0 234 -108 234 -275c0 -163 -86 -276 -235 -276c-150 0 -235 108 -235 275c0 163 86 276 236 276zM293 465c-88 0 -137 -64 -137 -202c0 -137 48 -201 136 -201s136 64 136 202
c0 137 -48 201 -135 201z" />
    <glyph glyph-name="uniA7B7" unicode="&#xa7b7;" horiz-adv-x="778" 
d="M651 527c30 -73 62 -166 62 -288c0 -177 -85 -251 -186 -251c-72 0 -124 37 -137 117c-18 -81 -64 -117 -146 -117c-96 0 -179 69 -179 251c0 122 30 213 61 288h91c-42 -112 -59 -192 -59 -289c0 -124 35 -176 100 -176c49 0 87 19 87 119v174l88 12v-186
c0 -87 33 -119 84 -119s103 32 103 178c0 95 -19 175 -61 287h92z" />
    <glyph glyph-name="uni0277" unicode="&#x277;" horiz-adv-x="762" 
d="M382 539c220 0 323 -128 323 -300c0 -177 -85 -251 -186 -251c-72 0 -124 37 -137 117c-18 -81 -64 -117 -146 -117c-96 0 -179 69 -179 251c0 172 105 300 325 300zM509 62c51 0 103 32 103 178c0 135 -59 226 -230 226s-232 -91 -232 -228c0 -124 35 -176 100 -176
c49 0 87 19 87 119v124l88 12v-136c0 -87 33 -119 84 -119z" />
    <glyph glyph-name="uni01EB" unicode="&#x1eb;" horiz-adv-x="584" 
d="M365 -2c-99 -43 -119 -76 -119 -112c0 -30 15 -48 56 -48c21 0 37 2 61 7l-9 -70c-20 -4 -37 -7 -63 -7c-77 0 -125 43 -125 101c0 50 27 90 84 122c-124 18 -193 121 -193 272c0 163 86 276 236 276s234 -108 234 -275c0 -134 -58 -235 -162 -266zM156 263
c0 -137 48 -201 136 -201s136 64 136 202c0 137 -48 201 -135 201c-88 0 -137 -64 -137 -202z" />
    <glyph glyph-name="uni01ED" unicode="&#x1ed;" horiz-adv-x="584" 
d="M428 736v-69h-273v69h273zM365 -2c-99 -43 -119 -76 -119 -112c0 -30 15 -48 56 -48c21 0 37 2 61 7l-9 -70c-20 -4 -37 -7 -63 -7c-77 0 -125 43 -125 101c0 50 27 90 84 122c-124 18 -193 121 -193 272c0 163 86 276 236 276s234 -108 234 -275
c0 -134 -58 -235 -162 -266zM156 263c0 -137 48 -201 136 -201s136 64 136 202c0 137 -48 201 -135 201c-88 0 -137 -64 -137 -202z" />
    <glyph glyph-name="uni0254" unicode="&#x254;" horiz-adv-x="484" 
d="M192 -12c-67 0 -119 22 -162 58l43 58c38 -27 68 -41 119 -42c88 0 136 64 136 202c0 137 -44 201 -132 201c-43 0 -78 -12 -119 -40l-42 57c43 36 99 57 162 57c149 0 230 -108 230 -275c0 -163 -86 -276 -235 -276z" />
    <glyph glyph-name="oslash" unicode="&#xf8;" horiz-adv-x="584" 
d="M416 508c72 -44 111 -130 111 -244c0 -163 -86 -276 -235 -276c-18 0 -35 2 -51 5l-39 -123l-75 22l42 127c-72 44 -112 130 -112 244c0 163 86 276 236 276c18 0 35 -2 51 -5l39 122l75 -22zM293 465c-88 0 -137 -64 -137 -202c0 -92 17 -145 48 -174l124 373
c-11 2 -23 3 -35 3zM292 62c88 0 136 64 136 202c0 91 -16 144 -47 173l-123 -372c10 -2 22 -3 34 -3z" />
    <glyph glyph-name="oslashacute" unicode="&#x1ff;" horiz-adv-x="584" 
d="M412 724l-212 -86l-28 49l199 114zM416 508c72 -44 111 -130 111 -244c0 -163 -86 -276 -235 -276c-18 0 -35 2 -51 5l-39 -123l-75 22l42 127c-72 44 -112 130 -112 244c0 163 86 276 236 276c18 0 35 -2 51 -5l39 122l75 -22zM293 465c-88 0 -137 -64 -137 -202
c0 -92 17 -145 48 -174l124 373c-11 2 -23 3 -35 3zM292 62c88 0 136 64 136 202c0 91 -16 144 -47 173l-123 -372c10 -2 22 -3 34 -3z" />
    <glyph glyph-name="otilde" unicode="&#xf5;" horiz-adv-x="584" 
d="M350 656c-28 0 -50 13 -68 26c-16 12 -31 22 -48 22c-23 0 -37 -16 -53 -46l-56 28c23 49 59 88 109 88c30 0 50 -13 69 -27c15 -11 30 -21 47 -21c20 0 35 14 53 44l56 -28c-26 -57 -64 -86 -109 -86zM293 539c150 0 234 -108 234 -275c0 -163 -86 -276 -235 -276
c-150 0 -235 108 -235 275c0 163 86 276 236 276zM293 465c-88 0 -137 -64 -137 -202c0 -137 48 -201 136 -201s136 64 136 202c0 137 -48 201 -135 201z" />
    </font>
</defs>
</svg>
