<?xml version="1.0" standalone="no"?>
<!DOCTYPE svg PUBLIC "-//W3C//DTD SVG 1.1//EN" "http://www.w3.org/Graphics/SVG/1.1/DTD/svg11.dtd" >
<svg xmlns="http://www.w3.org/2000/svg" xmlns:xlink="http://www.w3.org/1999/xlink" version="1.1">
<metadata>
Created by FontForge 20190317 at Tue Mar 20 13:21:41 2018
 By ruben
Digitized data copyright 2012-2018, The Mozilla Foundation and Telefonica S.A., bBox Type GmbH and Carrois Corporate GbR, with Reserved Font Name "Fira"
</metadata>
<defs>
<font id="FiraSans-Bold" horiz-adv-x="560" >
  <font-face 
    font-family="Fira Sans"
    font-weight="700"
    font-stretch="normal"
    units-per-em="1000"
    panose-1="2 11 8 3 5 0 0 2 0 4"
    ascent="800"
    descent="-200"
    x-height="531"
    cap-height="693"
    bbox="-783 -354 1360 1189"
    underline-thickness="50"
    underline-position="-100"
    stemh="116"
    stemv="158"
    unicode-range="U+000D-1F310"
  />
<missing-glyph horiz-adv-x="666" 
d="M543 1050v-1400h-420v1400h420zM489 998h-311v-1296h311v1296zM324 451c86 0 111 -55 111 -115c0 -70 -28 -108 -95 -118v-45c0 -15 -13 -24 -25 -24c-13 0 -25 9 -25 24v84c72 4 91 24 91 77c0 39 -11 69 -61 69c-21 0 -35 -3 -52 -11c-5 -2 -9 -3 -13 -3
c-15 0 -24 10 -24 23c0 27 54 39 93 39zM315 120c20 0 35 -15 35 -35c0 -21 -15 -37 -35 -37s-35 16 -35 37c0 20 15 35 35 35z" />
    <glyph glyph-name="f_f" unicode="ff" horiz-adv-x="652" 
d="M600 642c-45 0 -64 -20 -64 -70v-41h126l-18 -110h-108v-421h-158v421h-136v-421h-158v421h-81v110h81v37c0 102 67 179 206 179c56 0 104 -13 150 -31c33 27 80 43 141 43c55 0 107 -14 146 -34l-44 -103c-30 15 -59 20 -83 20zM378 531v47c0 17 2 33 5 48
c-25 7 -48 10 -76 10c-49 0 -65 -17 -65 -63v-42h136z" />
    <glyph glyph-name="f_f_i" unicode="ffi" horiz-adv-x="892" 
d="M536 531h295v-531h-158v421h-137v-421h-158v421h-136v-421h-158v421h-81v110h81v37c0 102 67 179 206 179c56 0 105 -13 151 -31c35 27 87 43 158 43c74 0 133 -19 176 -40l-44 -101c-32 13 -71 24 -114 24c-62 0 -81 -20 -81 -71v-40zM378 531v46c0 17 2 33 5 49
c-25 7 -48 10 -76 10c-49 0 -65 -17 -65 -63v-42h136z" />
    <glyph glyph-name="f_f_j" unicode="ffj" horiz-adv-x="892" 
d="M831 531v-471c0 -173 -89 -236 -214 -281l-52 115c68 31 108 59 108 156v371h-137v-421h-158v421h-136v-421h-158v421h-81v110h81v37c0 102 67 179 206 179c56 0 105 -13 151 -31c35 27 87 43 158 43c74 0 133 -19 176 -40l-44 -101c-32 13 -71 24 -111 24
c-65 0 -84 -20 -84 -71v-40h295zM378 531v46c0 17 2 33 5 49c-25 7 -48 10 -76 10c-49 0 -65 -17 -65 -63v-42h136z" />
    <glyph glyph-name="f_f_l" unicode="ffl" horiz-adv-x="931" 
d="M897 113l30 -112c-27 -11 -64 -18 -101 -18c-89 0 -141 52 -141 150v501c-28 7 -50 11 -78 11c-55 0 -71 -20 -71 -71v-43h101l-17 -110h-84v-421h-158v421h-136v-421h-158v421h-81v110h81v37c0 102 67 179 206 179c56 0 104 -13 150 -31c34 27 82 43 145 43
c43 0 80 -8 115 -18l143 15v-607c0 -30 10 -41 27 -41c9 0 19 2 27 5zM378 531v47c0 17 2 33 5 48c-25 7 -48 10 -76 10c-49 0 -65 -17 -65 -63v-42h136z" />
    <glyph glyph-name="f_j" unicode="fj" horiz-adv-x="598" 
d="M537 531v-471c0 -173 -90 -236 -214 -281l-53 115c68 31 109 59 109 156v371h-137v-421h-158v421h-81v110h81v46c0 102 63 182 221 182c74 0 133 -19 176 -40l-44 -101c-32 13 -72 24 -111 24c-66 0 -84 -20 -84 -71v-40h295z" />
    <glyph glyph-name="fi" unicode="fi" horiz-adv-x="598" 
d="M305 759c74 0 133 -19 176 -40l-44 -101c-32 13 -72 24 -114 24c-63 0 -81 -20 -81 -71v-40h295v-531h-158v421h-137v-421h-158v421h-81v110h81v46c0 102 63 182 221 182z" />
    <glyph glyph-name="fl" unicode="fl" horiz-adv-x="636" 
d="M602 113l31 -112c-27 -11 -65 -18 -102 -18c-88 0 -140 52 -140 150v501c-28 7 -50 11 -78 11c-55 0 -71 -20 -71 -71v-43h101l-18 -110h-83v-421h-158v421h-81v110h81v47c0 102 67 181 206 181c44 0 81 -8 116 -18l143 15v-607c0 -30 9 -41 27 -41c8 0 19 2 26 5z" />
    <glyph glyph-name=".notdef" horiz-adv-x="666" 
d="M543 1050v-1400h-420v1400h420zM489 998h-311v-1296h311v1296zM324 451c86 0 111 -55 111 -115c0 -70 -28 -108 -95 -118v-45c0 -15 -13 -24 -25 -24c-13 0 -25 9 -25 24v84c72 4 91 24 91 77c0 39 -11 69 -61 69c-21 0 -35 -3 -52 -11c-5 -2 -9 -3 -13 -3
c-15 0 -24 10 -24 23c0 27 54 39 93 39zM315 120c20 0 35 -15 35 -35c0 -21 -15 -37 -35 -37s-35 16 -35 37c0 20 15 35 35 35z" />
    <glyph glyph-name="A" unicode="A" horiz-adv-x="590" 
d="M430 0l-35 149h-203l-35 -149h-170l209 693h199l209 -693h-174zM220 268h146l-73 306z" />
    <glyph glyph-name="Aacute" unicode="&#xc1;" horiz-adv-x="590" 
d="M436 838l-240 -87l-40 80l221 125zM430 0l-36 149h-202l-35 -149h-170l209 693h199l209 -693h-174zM220 268h146l-73 306z" />
    <glyph glyph-name="Aacute.loclHUN" horiz-adv-x="590" 
d="M437 898l-143 -157l-71 41l97 183zM430 0l-36 149h-202l-35 -149h-170l209 693h199l209 -693h-174zM220 268h146l-73 306z" />
    <glyph glyph-name="Abreve" unicode="&#x102;" horiz-adv-x="590" 
d="M295 751c-105 0 -164 77 -172 162l87 15c12 -38 39 -68 85 -68s73 30 86 68l87 -15c-8 -85 -68 -162 -173 -162zM430 0l-36 149h-202l-35 -149h-170l209 693h199l209 -693h-174zM220 268h146l-73 306z" />
    <glyph glyph-name="uni1EAE" unicode="&#x1eae;" horiz-adv-x="590" 
d="M455 1058l-158 -140l-60 53l132 171zM295 737c-104 0 -163 77 -171 162l87 16c12 -39 39 -68 84 -68c46 0 74 29 86 68l87 -16c-8 -85 -67 -162 -173 -162zM430 0l-36 149h-202l-35 -149h-170l209 693h199l209 -693h-174zM220 268h146l-73 306z" />
    <glyph glyph-name="uni1EB6" unicode="&#x1eb6;" horiz-adv-x="590" 
d="M295 751c-105 0 -164 77 -172 162l87 15c12 -38 39 -68 85 -68s73 30 86 68l87 -15c-8 -85 -68 -162 -173 -162zM604 0h-174l-36 149h-202l-35 -149h-170l209 693h199zM220 268h146l-73 306zM296 -60c54 0 93 -39 93 -90s-39 -89 -93 -89c-56 0 -94 38 -94 89
s38 90 94 90z" />
    <glyph glyph-name="uni1EB0" unicode="&#x1eb0;" horiz-adv-x="590" 
d="M351 971l-60 -53l-158 140l86 84zM295 737c-104 0 -163 77 -171 162l87 16c12 -39 39 -68 84 -68c46 0 74 29 86 68l87 -16c-8 -85 -67 -162 -173 -162zM430 0l-36 149h-202l-35 -149h-170l209 693h199l209 -693h-174zM220 268h146l-73 306z" />
    <glyph glyph-name="uni1EB2" unicode="&#x1eb2;" horiz-adv-x="590" 
d="M281 1074c-24 0 -40 -5 -60 -13l-26 65c28 16 62 26 109 26c81 0 124 -42 124 -102c0 -52 -30 -83 -84 -93v-42h-94v89c49 3 71 12 71 38c0 21 -16 32 -40 32zM296 737c-105 0 -164 77 -172 162l87 16c12 -39 39 -68 85 -68s73 29 86 68l87 -16
c-8 -85 -68 -162 -173 -162zM430 0l-36 149h-202l-35 -149h-170l209 693h199l209 -693h-174zM220 268h146l-73 306z" />
    <glyph glyph-name="uni1EB4" unicode="&#x1eb4;" horiz-adv-x="590" 
d="M354 959c-28 0 -47 8 -66 21s-31 21 -48 21c-24 0 -37 -14 -53 -42l-79 37c25 60 69 110 129 110c31 0 49 -9 70 -23c18 -12 30 -19 46 -19c23 0 36 13 52 40l79 -36c-26 -62 -70 -109 -130 -109zM295 737c-105 0 -163 77 -171 162l87 16c12 -39 39 -68 84 -68
c46 0 74 29 86 68l87 -16c-8 -85 -67 -162 -173 -162zM430 0l-35 149h-203l-35 -149h-170l209 693h199l209 -693h-174zM220 268h146l-73 306z" />
    <glyph glyph-name="uni01CD" unicode="&#x1cd;" horiz-adv-x="590" 
d="M429 944l56 -65l-141 -129h-96l-142 129l57 65l133 -84zM430 0l-35 149h-203l-35 -149h-170l209 693h199l209 -693h-174zM220 268h146l-73 306z" />
    <glyph glyph-name="Acircumflex" unicode="&#xc2;" horiz-adv-x="590" 
d="M163 755l-57 65l142 129h96l141 -129l-56 -65l-133 84zM430 0l-35 149h-203l-35 -149h-170l209 693h199l209 -693h-174zM220 268h146l-73 306z" />
    <glyph glyph-name="uni1EA4" unicode="&#x1ea4;" horiz-adv-x="590" 
d="M529 1093l86 -84l-158 -140l-59 54zM162 721l-57 65l142 129h96l141 -129l-56 -65l-133 84zM430 0l-35 149h-203l-35 -149h-170l209 693h199l209 -693h-174zM220 268h146l-73 306z" />
    <glyph glyph-name="uni1EAC" unicode="&#x1eac;" horiz-adv-x="590" 
d="M163 755l-57 65l142 129h96l141 -129l-56 -65l-133 84zM430 0l-35 149h-203l-35 -149h-170l209 693h199l209 -693h-174zM220 268h146l-73 306zM296 -239c-56 0 -94 38 -94 89s38 90 94 90c54 0 93 -39 93 -90s-39 -89 -93 -89z" />
    <glyph glyph-name="uni1EA6" unicode="&#x1ea6;" horiz-adv-x="590" 
d="M62 1093l131 -170l-59 -54l-158 140zM162 721l-57 65l142 129h96l141 -129l-56 -65l-133 84zM430 0l-35 149h-203l-35 -149h-170l209 693h199l209 -693h-174zM220 268h146l-73 306z" />
    <glyph glyph-name="uni1EA8" unicode="&#x1ea8;" horiz-adv-x="590" 
d="M420 856v89c49 3 71 12 71 38c0 21 -16 31 -39 31c-24 0 -41 -5 -61 -13l-26 66c28 16 62 26 109 26c81 0 124 -43 124 -102c0 -52 -30 -83 -84 -93v-42h-94zM162 721l-57 65l142 129h96l141 -129l-56 -65l-133 84zM430 0l-35 149h-203l-35 -149h-170l209 693h199
l209 -693h-174zM220 268h146l-73 306z" />
    <glyph glyph-name="uni1EAA" unicode="&#x1eaa;" horiz-adv-x="590" 
d="M351 955c-28 0 -46 9 -66 22c-19 13 -31 21 -48 21c-24 0 -37 -14 -53 -42l-79 36c25 61 69 111 129 111c31 0 50 -10 70 -23c18 -12 30 -20 46 -20c23 0 36 14 53 41l79 -36c-26 -62 -71 -110 -131 -110zM161 721l-57 65l142 129h96l141 -129l-56 -65l-133 84zM430 0
l-35 149h-203l-35 -149h-170l209 693h199l209 -693h-174zM220 268h146l-73 306z" />
    <glyph glyph-name="uni0200" unicode="&#x200;" horiz-adv-x="590" 
d="M165 986l97 -197l-81 -38l-122 182zM341 986l88 -197l-83 -33l-113 180zM430 0l-35 149h-203l-35 -149h-170l209 693h199l209 -693h-174zM220 268h146l-73 306z" />
    <glyph glyph-name="Adieresis" unicode="&#xc4;" horiz-adv-x="590" 
d="M178 925c46 0 81 -35 81 -79s-35 -79 -81 -79c-45 0 -81 35 -81 79s36 79 81 79zM409 925c47 0 81 -35 81 -79s-34 -79 -81 -79c-44 0 -80 35 -80 79s36 79 80 79zM430 0l-35 149h-203l-35 -149h-170l209 693h199l209 -693h-174zM220 268h146l-73 306z" />
    <glyph glyph-name="uni01DE" unicode="&#x1de;" horiz-adv-x="590" 
d="M450 960h-305v109h305v-109zM180 904c45 0 80 -35 80 -79c0 -45 -35 -80 -80 -80s-81 35 -81 80c0 44 36 79 81 79zM411 904c46 0 81 -35 81 -79c0 -45 -35 -80 -81 -80c-44 0 -80 35 -80 80c0 44 36 79 80 79zM430 0l-35 149h-203l-35 -149h-170l209 693h199l209 -693
h-174zM220 268h146l-73 306z" />
    <glyph glyph-name="uni0226" unicode="&#x226;" horiz-adv-x="590" 
d="M295 937c55 0 94 -39 94 -90s-39 -90 -94 -90s-93 39 -93 90s38 90 93 90zM430 0l-35 149h-203l-35 -149h-170l209 693h199l209 -693h-174zM220 268h146l-73 306z" />
    <glyph glyph-name="uni1EA0" unicode="&#x1ea0;" horiz-adv-x="590" 
d="M430 0l-35 149h-203l-35 -149h-170l209 693h199l209 -693h-174zM220 268h146l-73 306zM296 -239c-56 0 -94 38 -94 89s38 90 94 90c54 0 93 -39 93 -90s-39 -89 -93 -89z" />
    <glyph glyph-name="uni01E0" unicode="&#x1e0;" horiz-adv-x="590" 
d="M448 967h-305v109h305v-109zM294 915c55 0 93 -39 93 -90c0 -50 -38 -89 -93 -89s-93 39 -93 89c0 51 38 90 93 90zM430 0l-35 149h-203l-35 -149h-170l209 693h199l209 -693h-174zM220 268h146l-73 306z" />
    <glyph glyph-name="Agrave" unicode="&#xc0;" horiz-adv-x="590" 
d="M211 956l221 -125l-40 -80l-240 87zM430 0l-35 149h-203l-35 -149h-170l209 693h199l209 -693h-174zM220 268h146l-73 306z" />
    <glyph glyph-name="uni1EA2" unicode="&#x1ea2;" horiz-adv-x="590" 
d="M248 764v89c49 3 71 12 71 38c0 21 -16 31 -40 31c-23 0 -40 -5 -60 -13l-26 66c28 16 62 26 109 26c81 0 124 -43 124 -102c0 -52 -30 -83 -84 -93v-42h-94zM430 0l-35 149h-203l-35 -149h-170l209 693h199l209 -693h-174zM220 268h146l-73 306z" />
    <glyph glyph-name="uni0202" unicode="&#x202;" horiz-adv-x="590" 
d="M295 951c105 0 165 -77 173 -172l-87 -15c-13 48 -40 77 -86 77s-73 -29 -85 -77l-87 15c8 95 67 172 172 172zM430 0l-35 149h-203l-35 -149h-170l209 693h199l209 -693h-174zM220 268h146l-73 306z" />
    <glyph glyph-name="uni2C6D" unicode="&#x2c6d;" horiz-adv-x="689" 
d="M618 179c0 -47 11 -64 43 -80l-47 -116c-67 12 -109 34 -134 77c-39 -45 -93 -77 -174 -77c-161 0 -273 128 -273 352c0 237 117 375 276 375c70 0 121 -30 159 -69l10 52h140v-514zM339 100c45 0 84 17 115 51v388c-27 30 -62 51 -112 51c-87 0 -137 -69 -137 -255
c0 -176 53 -235 134 -235z" />
    <glyph glyph-name="Amacron" unicode="&#x100;" horiz-adv-x="590" 
d="M448 781h-305v110h305v-110zM430 0l-35 149h-203l-35 -149h-170l209 693h199l209 -693h-174zM220 268h146l-73 306z" />
    <glyph glyph-name="Aogonek" unicode="&#x104;" horiz-adv-x="590" 
d="M521 0c-99 -37 -118 -74 -118 -102c0 -30 17 -46 53 -46c19 0 38 3 61 8l-11 -98c-22 -5 -44 -8 -70 -8c-85 0 -147 45 -147 117c0 74 52 121 135 155l-29 123h-203l-35 -149h-170l209 693h199l209 -693h-83zM220 268h146l-73 306z" />
    <glyph glyph-name="Aring" unicode="&#xc5;" horiz-adv-x="590" 
d="M296 993c86 0 139 -60 139 -131s-53 -131 -139 -131s-139 60 -139 131s53 131 139 131zM296 912c-27 0 -45 -17 -45 -50s18 -50 45 -50c26 0 45 17 45 50s-18 50 -45 50zM430 0l-35 149h-203l-35 -149h-170l209 693h199l209 -693h-174zM220 268h146l-73 306z" />
    <glyph glyph-name="Aringacute" unicode="&#x1fa;" horiz-adv-x="590" 
d="M378 1189l59 -119l-240 -87l-40 81zM295 982c86 0 139 -60 139 -130c0 -71 -53 -132 -139 -132s-139 61 -139 132c0 70 53 130 139 130zM295 901c-27 0 -45 -16 -45 -49c0 -34 18 -50 45 -50c26 0 45 16 45 50c0 33 -18 49 -45 49zM430 0l-35 149h-203l-35 -149h-170
l209 693h199l209 -693h-174zM220 268h146l-73 306z" />
    <glyph glyph-name="uni023A" unicode="&#x23a;" horiz-adv-x="590" 
d="M444 0l-38 149h-114l-59 -223l-58 13l56 210h-50l-38 -149h-156l209 693h178l17 63l57 -14l-32 -120l188 -622h-160zM209 261h51l60 225l-27 104zM321 261h56l-27 108z" />
    <glyph glyph-name="Atilde" unicode="&#xc3;" horiz-adv-x="590" 
d="M354 761c-28 0 -47 8 -67 23c-18 13 -30 22 -47 22c-24 0 -37 -16 -53 -44l-79 38c25 64 69 118 129 118c31 0 49 -10 70 -24c18 -13 30 -21 46 -21c22 0 36 15 52 44l79 -39c-26 -67 -71 -117 -130 -117zM430 0l-35 149h-203l-35 -149h-170l209 693h199l209 -693h-174z
M220 268h146l-73 306z" />
    <glyph glyph-name="AE" unicode="&#xc6;" horiz-adv-x="845" 
d="M582 118h230v-118h-368l-26 149h-215l-50 -149h-176l272 693h526l-17 -117h-270l34 -168h244v-115h-220zM243 268h155l-53 305z" />
    <glyph glyph-name="AEacute" unicode="&#x1fc;" horiz-adv-x="845" 
d="M623 838l-240 -87l-40 80l221 125zM582 118h230v-118h-368l-26 149h-215l-50 -149h-176l272 693h526l-17 -117h-270l34 -168h244v-115h-220zM243 268h155l-53 305z" />
    <glyph glyph-name="uni01E2" unicode="&#x1e2;" horiz-adv-x="845" 
d="M635 891v-110h-305v110h305zM582 118h230v-118h-368l-26 149h-215l-50 -149h-176l272 693h526l-17 -117h-270l34 -168h244v-115h-220zM243 268h155l-53 305z" />
    <glyph glyph-name="B" unicode="B" horiz-adv-x="617" 
d="M434 367c77 -15 156 -53 156 -165c0 -158 -128 -202 -302 -202h-223v693h196c186 0 300 -47 300 -177c0 -88 -63 -134 -127 -149zM277 577h-48v-161h61c68 0 104 26 104 84s-38 77 -117 77zM289 119c77 0 132 16 132 92c0 70 -49 96 -120 96h-72v-188h60z" />
    <glyph glyph-name="uni1E02" unicode="&#x1e02;" horiz-adv-x="617" 
d="M294 757c-55 0 -93 39 -93 90s38 90 93 90s94 -39 94 -90s-39 -90 -94 -90zM434 367c77 -15 156 -53 156 -165c0 -158 -128 -202 -302 -202h-223v693h196c186 0 300 -47 300 -177c0 -88 -63 -134 -127 -149zM277 577h-48v-161h61c68 0 104 26 104 84s-38 77 -117 77z
M289 119c77 0 132 16 132 92c0 70 -49 96 -120 96h-72v-188h60z" />
    <glyph glyph-name="uni1E04" unicode="&#x1e04;" horiz-adv-x="617" 
d="M434 367c77 -15 156 -53 156 -165c0 -158 -128 -202 -302 -202h-223v693h196c186 0 300 -47 300 -177c0 -88 -63 -134 -127 -149zM277 577h-48v-161h61c68 0 104 26 104 84s-38 77 -117 77zM289 119c77 0 132 16 132 92c0 70 -49 96 -120 96h-72v-188h60zM310 -60
c54 0 93 -39 93 -90s-39 -89 -93 -89c-56 0 -94 38 -94 89s38 90 94 90z" />
    <glyph glyph-name="uniA7B4" unicode="&#xa7b4;" horiz-adv-x="617" 
d="M434 367c77 -15 156 -53 156 -161c0 -155 -126 -206 -259 -206c-36 0 -70 4 -102 10v-220h-164v903h196c186 0 300 -47 300 -177c0 -88 -63 -134 -127 -149zM309 119c64 0 112 26 112 97c0 65 -46 91 -107 91h-34l10 109h13c53 0 91 26 91 81c0 61 -38 80 -117 80h-48
v-452c26 -4 53 -6 80 -6z" />
    <glyph glyph-name="uni0181" unicode="&#x181;" horiz-adv-x="758" 
d="M575 367c78 -15 157 -53 157 -165c0 -158 -128 -202 -302 -202h-224v576h-28c-30 0 -46 -15 -46 -42c0 -22 7 -42 17 -65l-101 -45c-23 34 -44 73 -44 120c0 92 71 149 183 149h216c185 0 300 -47 300 -177c0 -88 -64 -134 -128 -149zM418 577h-48v-161h61
c68 0 105 26 105 84s-38 77 -118 77zM431 119c77 0 131 16 131 92c0 70 -48 96 -119 96h-73v-188h61z" />
    <glyph glyph-name="uni0181.ss02" horiz-adv-x="596" 
d="M303 446c173 0 275 -72 275 -217c0 -156 -114 -229 -272 -229h-241v693h432l-17 -124h-251v-123h74zM292 119c73 0 115 33 115 108c0 69 -38 105 -118 105h-60v-213h63z" />
    <glyph glyph-name="uni0243" unicode="&#x243;" horiz-adv-x="631" 
d="M448 367c78 -15 157 -53 157 -165c0 -158 -128 -202 -302 -202h-224v175h-65v80h65v438h197c185 0 300 -47 300 -177c0 -88 -64 -134 -128 -149zM291 577h-48v-161h61c68 0 105 26 105 84s-38 77 -118 77zM304 119c77 0 131 16 131 92c0 70 -48 96 -119 96h-73v-52h115
v-80h-115v-56h61z" />
    <glyph glyph-name="uni0182" unicode="&#x182;" horiz-adv-x="596" 
d="M303 446c173 0 275 -72 275 -217c0 -156 -114 -229 -272 -229h-241v693h432l-17 -124h-251v-123h74zM292 119c73 0 115 33 115 108c0 69 -38 105 -118 105h-60v-213h63z" />
    <glyph glyph-name="C" unicode="C" horiz-adv-x="575" 
d="M348 710c90 0 153 -27 211 -76l-78 -93c-39 30 -78 48 -125 48c-89 0 -151 -71 -151 -241c0 -167 61 -238 153 -238c55 0 95 25 136 56l73 -94c-46 -46 -121 -89 -217 -89c-190 0 -317 128 -317 365c0 232 135 362 315 362z" />
    <glyph glyph-name="Cacute" unicode="&#x106;" horiz-adv-x="575" 
d="M435 956l59 -118l-240 -87l-40 80zM348 710c90 0 153 -27 211 -76l-78 -93c-39 30 -78 48 -125 48c-89 0 -151 -71 -151 -241c0 -167 61 -238 153 -238c55 0 95 25 136 56l73 -94c-46 -46 -121 -89 -217 -89c-190 0 -317 128 -317 365c0 232 135 362 315 362z" />
    <glyph glyph-name="Cacute.loclPLK" horiz-adv-x="575" 
d="M379 965l117 -67l-143 -157l-71 41zM348 710c90 0 153 -27 211 -76l-78 -93c-39 30 -78 48 -125 48c-89 0 -151 -71 -151 -241c0 -167 61 -238 153 -238c55 0 95 25 136 56l73 -94c-46 -46 -121 -89 -217 -89c-190 0 -317 128 -317 365c0 232 135 362 315 362z" />
    <glyph glyph-name="Ccaron" unicode="&#x10c;" horiz-adv-x="575" 
d="M487 944l56 -65l-141 -129h-96l-142 129l57 65l133 -84zM348 710c90 0 153 -27 211 -76l-78 -93c-39 30 -78 48 -125 48c-89 0 -151 -71 -151 -241c0 -167 61 -238 153 -238c55 0 95 25 136 56l73 -94c-46 -46 -121 -89 -217 -89c-190 0 -317 128 -317 365
c0 232 135 362 315 362z" />
    <glyph glyph-name="Ccedilla" unicode="&#xc7;" horiz-adv-x="575" 
d="M383 -48c72 -8 104 -45 104 -99c0 -68 -58 -115 -149 -115c-47 0 -87 13 -112 30l36 73c20 -10 39 -17 64 -17c28 0 47 8 47 30c0 24 -28 34 -92 34l12 99c-158 24 -260 149 -260 361c0 232 135 362 315 362c90 0 153 -27 211 -76l-78 -93c-39 30 -78 48 -125 48
c-89 0 -151 -71 -151 -241c0 -167 61 -238 153 -238c55 0 95 25 136 56l73 -94c-41 -41 -104 -79 -184 -87v-33z" />
    <glyph glyph-name="Ccircumflex" unicode="&#x108;" horiz-adv-x="575" 
d="M221 755l-57 65l142 129h96l141 -129l-56 -65l-133 84zM348 710c90 0 153 -27 211 -76l-78 -93c-39 30 -78 48 -125 48c-89 0 -151 -71 -151 -241c0 -167 61 -238 153 -238c55 0 95 25 136 56l73 -94c-46 -46 -121 -89 -217 -89c-190 0 -317 128 -317 365
c0 232 135 362 315 362z" />
    <glyph glyph-name="Cdotaccent" unicode="&#x10a;" horiz-adv-x="575" 
d="M353 937c55 0 94 -39 94 -90s-39 -90 -94 -90s-93 39 -93 90s38 90 93 90zM348 710c90 0 153 -27 211 -76l-78 -93c-39 30 -78 48 -125 48c-89 0 -151 -71 -151 -241c0 -167 61 -238 153 -238c55 0 95 25 136 56l73 -94c-46 -46 -121 -89 -217 -89
c-190 0 -317 128 -317 365c0 232 135 362 315 362z" />
    <glyph glyph-name="uniA7B3" unicode="&#xa7b3;" horiz-adv-x="572" 
d="M381 295l195 -456h-179l-115 346l-112 -346h-174l189 451l-174 403h178l95 -301l101 301h174z" />
    <glyph glyph-name="uni0187" unicode="&#x187;" horiz-adv-x="575" 
d="M590 851c60 0 103 -17 135 -37l-46 -98c-23 12 -42 19 -68 19c-34 0 -52 -19 -52 -62v-39l-70 -84c-40 24 -80 39 -134 39c-88 0 -150 -71 -150 -241c0 -167 61 -238 153 -238c55 0 95 27 135 58l74 -96c-45 -46 -121 -89 -217 -89c-190 0 -317 128 -317 365
c0 232 138 362 296 362c36 0 66 -6 91 -16c5 98 60 157 170 157z" />
    <glyph glyph-name="uni023B" unicode="&#x23b;" horiz-adv-x="575" 
d="M567 72c-46 -46 -121 -89 -217 -89c-26 0 -51 2 -75 7l-17 -64l-58 13l18 69c-114 47 -185 163 -185 340c0 232 135 362 315 362c20 0 38 -1 56 -4l13 50l57 -14l-13 -50c36 -13 68 -32 98 -58l-78 -93c-17 13 -34 24 -52 32l-120 -455c15 -5 31 -8 49 -8
c55 0 95 25 136 56zM205 348c0 -93 19 -157 52 -194l115 434c-5 1 -10 1 -16 1c-89 0 -151 -71 -151 -241z" />
    <glyph glyph-name="D" unicode="D" horiz-adv-x="651" 
d="M258 693c185 0 360 -57 360 -343c0 -279 -168 -350 -345 -350h-208v693h193zM281 574h-52v-455h54c99 0 165 47 165 231c0 186 -71 224 -167 224z" />
    <glyph glyph-name="uni01F1" unicode="&#x1f1;" horiz-adv-x="1170" 
d="M258 693c185 0 360 -57 360 -343c0 -279 -168 -350 -345 -350h-208v693h193zM1138 693v-124l-301 -438h306l-16 -131h-483v123l307 443h-276v127h463zM281 574h-52v-455h54c99 0 165 47 165 231c0 186 -71 224 -167 224z" />
    <glyph glyph-name="uni01C4" unicode="&#x1c4;" horiz-adv-x="1170" 
d="M1036 944l56 -65l-141 -129h-97l-141 129l57 65l132 -84zM258 693c185 0 360 -57 360 -343c0 -279 -168 -350 -345 -350h-208v693h193zM1138 693v-124l-301 -438h306l-16 -131h-483v123l307 443h-276v127h463zM281 574h-52v-455h54c99 0 165 47 165 231
c0 186 -71 224 -167 224z" />
    <glyph glyph-name="uni0189" unicode="&#x189;" horiz-adv-x="665" 
d="M272 693c185 0 360 -57 360 -343c0 -279 -168 -350 -345 -350h-209v304h-64v98h64v291h194zM297 119c99 0 165 47 165 231c0 186 -71 224 -167 224h-53v-172h135v-98h-135v-185h55z" />
    <glyph glyph-name="Eth" unicode="&#xd0;" horiz-adv-x="665" 
d="M272 693c185 0 360 -57 360 -343c0 -279 -168 -350 -345 -350h-209v304h-64v98h64v291h194zM297 119c99 0 165 47 165 231c0 186 -71 224 -167 224h-53v-172h135v-98h-135v-185h55z" />
    <glyph glyph-name="Dcaron" unicode="&#x10e;" horiz-adv-x="651" 
d="M429 944l56 -65l-141 -129h-96l-142 129l57 65l133 -84zM258 693c185 0 360 -57 360 -343c0 -279 -168 -350 -345 -350h-208v693h193zM281 574h-52v-455h54c99 0 165 47 165 231c0 186 -71 224 -167 224z" />
    <glyph glyph-name="uni1E12" unicode="&#x1e12;" horiz-adv-x="651" 
d="M258 693c185 0 360 -57 360 -343c0 -279 -168 -350 -345 -350h-208v693h193zM281 574h-52v-455h54c99 0 165 47 165 231c0 186 -71 224 -167 224zM173 -265l-56 65l141 137h97l141 -137l-56 -65l-133 92z" />
    <glyph glyph-name="Dcroat" unicode="&#x110;" horiz-adv-x="665" 
d="M272 693c185 0 360 -57 360 -343c0 -279 -168 -350 -345 -350h-209v304h-64v98h64v291h194zM297 119c99 0 165 47 165 231c0 186 -71 224 -167 224h-53v-172h135v-98h-135v-185h55z" />
    <glyph glyph-name="uni1E0A" unicode="&#x1e0a;" horiz-adv-x="651" 
d="M295 937c55 0 94 -39 94 -90s-39 -90 -94 -90s-93 39 -93 90s38 90 93 90zM258 693c185 0 360 -57 360 -343c0 -279 -168 -350 -345 -350h-208v693h193zM281 574h-52v-455h54c99 0 165 47 165 231c0 186 -71 224 -167 224z" />
    <glyph glyph-name="uni1E0C" unicode="&#x1e0c;" horiz-adv-x="651" 
d="M258 693c185 0 360 -57 360 -343c0 -279 -168 -350 -345 -350h-208v693h193zM281 574h-52v-455h54c99 0 165 47 165 231c0 186 -71 224 -167 224zM307 -239c-56 0 -94 38 -94 89s38 90 94 90c54 0 93 -39 93 -90s-39 -89 -93 -89z" />
    <glyph glyph-name="uni018A" unicode="&#x18a;" horiz-adv-x="793" 
d="M399 693c186 0 361 -57 361 -343c0 -279 -168 -350 -345 -350h-209v576h-28c-30 0 -46 -15 -46 -42c0 -22 7 -42 17 -65l-101 -45c-23 34 -44 73 -44 120c0 92 71 149 183 149h212zM425 119c98 0 165 47 165 231c0 186 -71 224 -167 224h-53v-455h55z" />
    <glyph glyph-name="uni1E0E" unicode="&#x1e0e;" horiz-adv-x="651" 
d="M258 693c185 0 360 -57 360 -343c0 -279 -168 -350 -345 -350h-208v693h193zM281 574h-52v-455h54c99 0 165 47 165 231c0 186 -71 224 -167 224zM458 -191h-305v109h305v-109z" />
    <glyph glyph-name="uni018B" unicode="&#x18b;" horiz-adv-x="596" 
d="M531 693v-693h-247c-155 0 -266 67 -266 223c0 143 102 223 275 223h74v123h-262v124h426zM303 119h64v213h-60c-80 0 -118 -37 -118 -109c0 -74 42 -104 114 -104z" />
    <glyph glyph-name="uni01F2" unicode="&#x1f2;" horiz-adv-x="1097" 
d="M258 693c185 0 360 -57 360 -343c0 -279 -168 -350 -345 -350h-208v693h193zM281 574h-52v-455h54c99 0 165 47 165 231c0 186 -71 224 -167 224zM1079 531v-111l-240 -300h245l-14 -120h-414v112l241 300h-220v119h402z" />
    <glyph glyph-name="uni01C5" unicode="&#x1c5;" horiz-adv-x="1097" 
d="M1009 813l56 -65l-141 -137h-96l-142 137l57 65l133 -91zM258 693c185 0 360 -57 360 -343c0 -279 -168 -350 -345 -350h-208v693h193zM281 574h-52v-455h54c99 0 165 47 165 231c0 186 -71 224 -167 224zM1079 531v-111l-240 -300h245l-14 -120h-414v112l241 300h-220
v119h402z" />
    <glyph glyph-name="E" unicode="E" horiz-adv-x="526" 
d="M490 693l-17 -117h-244v-166h213v-115h-213v-177h261v-118h-425v693h425z" />
    <glyph glyph-name="Eacute" unicode="&#xc9;" horiz-adv-x="526" 
d="M360 956l59 -118l-240 -87l-40 80zM490 693l-17 -117h-244v-166h213v-115h-213v-177h261v-118h-425v693h425z" />
    <glyph glyph-name="Eacute.loclHUN" horiz-adv-x="526" 
d="M303 965l117 -67l-143 -157l-71 41zM490 693l-17 -117h-244v-166h213v-115h-213v-177h261v-118h-425v693h425z" />
    <glyph glyph-name="Ebreve" unicode="&#x114;" horiz-adv-x="526" 
d="M278 751c-105 0 -164 77 -172 162l87 15c12 -38 39 -68 85 -68s73 30 86 68l87 -15c-8 -85 -68 -162 -173 -162zM490 693l-17 -117h-244v-166h213v-115h-213v-177h261v-118h-425v693h425z" />
    <glyph glyph-name="Ecaron" unicode="&#x11a;" horiz-adv-x="526" 
d="M412 944l56 -65l-141 -129h-96l-142 129l57 65l133 -84zM490 693l-17 -117h-244v-166h213v-115h-213v-177h261v-118h-425v693h425z" />
    <glyph glyph-name="uni0228" unicode="&#x228;" horiz-adv-x="526" 
d="M229 295v-177h261v-118h-171v-48c72 -8 104 -45 104 -99c0 -68 -58 -115 -149 -115c-47 0 -87 13 -112 30l36 73c20 -10 39 -17 64 -17c28 0 47 8 47 30c0 24 -28 34 -92 34l13 112h-165v693h425l-17 -117h-244v-166h213v-115h-213z" />
    <glyph glyph-name="Ecircumflex" unicode="&#xca;" horiz-adv-x="526" 
d="M146 755l-57 65l142 129h96l141 -129l-56 -65l-133 84zM490 693l-17 -117h-244v-166h213v-115h-213v-177h261v-118h-425v693h425z" />
    <glyph glyph-name="uni1EBE" unicode="&#x1ebe;" horiz-adv-x="526" 
d="M512 1093l86 -84l-158 -140l-59 54zM145 721l-57 65l142 129h96l141 -129l-56 -65l-133 84zM490 693l-17 -117h-244v-166h213v-115h-213v-177h261v-118h-425v693h425z" />
    <glyph glyph-name="uni1EC6" unicode="&#x1ec6;" horiz-adv-x="526" 
d="M146 755l-57 65l142 129h96l141 -129l-56 -65l-133 84zM490 693l-17 -117h-244v-166h213v-115h-213v-177h261v-118h-425v693h425zM278 -239c-56 0 -94 38 -94 89s38 90 94 90c54 0 93 -39 93 -90s-39 -89 -93 -89z" />
    <glyph glyph-name="uni1EC0" unicode="&#x1ec0;" horiz-adv-x="526" 
d="M45 1093l131 -170l-59 -54l-158 140zM145 721l-57 65l142 129h96l141 -129l-56 -65l-133 84zM490 693l-17 -117h-244v-166h213v-115h-213v-177h261v-118h-425v693h425z" />
    <glyph glyph-name="uni1EC2" unicode="&#x1ec2;" horiz-adv-x="526" 
d="M403 856v89c49 3 71 12 71 38c0 21 -16 31 -39 31c-24 0 -41 -5 -61 -13l-26 66c28 16 62 26 109 26c81 0 124 -43 124 -102c0 -52 -30 -83 -84 -93v-42h-94zM145 721l-57 65l142 129h96l141 -129l-56 -65l-133 84zM490 693l-17 -117h-244v-166h213v-115h-213v-177h261
v-118h-425v693h425z" />
    <glyph glyph-name="uni1EC4" unicode="&#x1ec4;" horiz-adv-x="526" 
d="M334 955c-28 0 -46 9 -66 22c-19 13 -31 21 -48 21c-24 0 -37 -14 -53 -42l-79 36c25 61 69 111 129 111c31 0 50 -10 70 -23c18 -12 30 -20 46 -20c23 0 36 14 53 41l79 -36c-26 -62 -71 -110 -131 -110zM144 721l-57 65l142 129h96l141 -129l-56 -65l-133 84zM490 693
l-17 -117h-244v-166h213v-115h-213v-177h261v-118h-425v693h425z" />
    <glyph glyph-name="uni0204" unicode="&#x204;" horiz-adv-x="526" 
d="M148 986l97 -197l-81 -38l-122 182zM324 986l88 -197l-83 -33l-113 180zM490 693l-17 -117h-244v-166h213v-115h-213v-177h261v-118h-425v693h425z" />
    <glyph glyph-name="Edieresis" unicode="&#xcb;" horiz-adv-x="526" 
d="M161 925c46 0 81 -35 81 -79s-35 -79 -81 -79c-45 0 -81 35 -81 79s36 79 81 79zM392 925c47 0 81 -35 81 -79s-34 -79 -81 -79c-44 0 -80 35 -80 79s36 79 80 79zM490 693l-17 -117h-244v-166h213v-115h-213v-177h261v-118h-425v693h425z" />
    <glyph glyph-name="Edotaccent" unicode="&#x116;" horiz-adv-x="526" 
d="M278 937c55 0 94 -39 94 -90s-39 -90 -94 -90s-93 39 -93 90s38 90 93 90zM490 693l-17 -117h-244v-166h213v-115h-213v-177h261v-118h-425v693h425z" />
    <glyph glyph-name="uni1EB8" unicode="&#x1eb8;" horiz-adv-x="526" 
d="M490 693l-17 -117h-244v-166h213v-115h-213v-177h261v-118h-425v693h425zM278 -239c-56 0 -94 38 -94 89s38 90 94 90c54 0 93 -39 93 -90s-39 -89 -93 -89z" />
    <glyph glyph-name="Egrave" unicode="&#xc8;" horiz-adv-x="526" 
d="M194 956l221 -125l-40 -80l-240 87zM490 693l-17 -117h-244v-166h213v-115h-213v-177h261v-118h-425v693h425z" />
    <glyph glyph-name="uni1EBA" unicode="&#x1eba;" horiz-adv-x="526" 
d="M231 764v89c49 3 71 12 71 38c0 21 -16 31 -40 31c-23 0 -40 -5 -60 -13l-26 66c28 16 62 26 109 26c81 0 124 -43 124 -102c0 -52 -30 -83 -84 -93v-42h-94zM490 693l-17 -117h-244v-166h213v-115h-213v-177h261v-118h-425v693h425z" />
    <glyph glyph-name="uni0206" unicode="&#x206;" horiz-adv-x="526" 
d="M278 951c105 0 165 -77 173 -172l-87 -15c-13 48 -40 77 -86 77s-73 -29 -85 -77l-87 15c8 95 67 172 172 172zM490 693l-17 -117h-244v-166h213v-115h-213v-177h261v-118h-425v693h425z" />
    <glyph glyph-name="Emacron" unicode="&#x112;" horiz-adv-x="526" 
d="M431 781h-305v110h305v-110zM490 693l-17 -117h-244v-166h213v-115h-213v-177h261v-118h-425v693h425z" />
    <glyph glyph-name="Eogonek" unicode="&#x118;" horiz-adv-x="526" 
d="M229 295v-177h261v-118h-40c-99 -37 -118 -74 -118 -102c0 -30 17 -46 53 -46c19 0 38 3 61 8l-11 -98c-22 -5 -44 -8 -70 -8c-85 0 -147 45 -147 117c0 56 30 98 82 129h-235v693h425l-17 -117h-244v-166h213v-115h-213z" />
    <glyph glyph-name="uni0190" unicode="&#x190;" horiz-adv-x="541" 
d="M291 710c95 0 168 -31 232 -92l-79 -83c-43 38 -87 56 -134 56c-69 0 -94 -36 -94 -81c0 -54 37 -86 103 -86h76l-20 -118h-53c-84 0 -124 -38 -124 -101c0 -65 44 -101 117 -101c56 0 98 21 141 62l87 -86c-58 -62 -138 -97 -244 -97c-159 0 -273 83 -273 212
c0 104 69 161 176 173c-104 21 -155 81 -155 160c0 105 96 182 244 182z" />
    <glyph glyph-name="uni018E" unicode="&#x18e;" horiz-adv-x="526" 
d="M41 693h420v-693h-425v118h261v177h-213v115h213v166h-256v117z" />
    <glyph glyph-name="uni01A9" unicode="&#x1a9;" horiz-adv-x="503" 
d="M482 693v-119h-280l168 -200v-65l-169 -187h281v-122h-461v119l192 221l-192 234v119h461z" />
    <glyph glyph-name="uni0246" unicode="&#x246;" horiz-adv-x="526" 
d="M337 295l-47 -177h200v-118h-231l-20 -74l-58 13l16 61h-132v693h315l17 63l58 -14l-13 -49h48l-17 -117h-62l-44 -166h75v-115h-105zM229 576v-166h77l43 166h-120zM229 295v-174l46 174h-46z" />
    <glyph glyph-name="uni1EBC" unicode="&#x1ebc;" horiz-adv-x="526" 
d="M337 761c-28 0 -47 8 -67 23c-18 13 -30 22 -47 22c-24 0 -37 -16 -53 -44l-79 38c25 64 69 118 129 118c31 0 49 -10 70 -24c18 -13 30 -21 46 -21c22 0 36 15 52 44l79 -39c-26 -67 -71 -117 -130 -117zM490 693l-17 -117h-244v-166h213v-115h-213v-177h261v-118h-425
v693h425z" />
    <glyph glyph-name="uni01B7" unicode="&#x1b7;" horiz-adv-x="547" 
d="M307 403c138 -6 213 -79 213 -198c0 -124 -100 -222 -277 -222c-111 0 -185 38 -239 102l84 82c46 -43 86 -62 147 -62c72 0 116 38 116 107s-48 96 -125 96h-99v92l177 174h-261v119h442v-115z" />
    <glyph glyph-name="uni01EE" unicode="&#x1ee;" horiz-adv-x="547" 
d="M313 750h-96l-142 129l57 65l133 -84l133 84l56 -65zM307 403c138 -6 213 -79 213 -198c0 -124 -100 -222 -277 -222c-111 0 -185 38 -239 102l84 82c46 -43 86 -62 147 -62c72 0 116 38 116 107s-48 96 -125 96h-99v92l177 174h-261v119h442v-115z" />
    <glyph glyph-name="uni01B8" unicode="&#x1b8;" horiz-adv-x="547" 
d="M458 167l85 -82c-56 -64 -130 -102 -247 -102c-168 0 -270 93 -270 220c0 115 82 194 214 200l-178 175v115h441v-119h-258l175 -176v-90h-100c-81 0 -124 -36 -124 -103c0 -62 41 -100 109 -100c65 0 108 19 153 62z" />
    <glyph glyph-name="F" unicode="F" horiz-adv-x="487" 
d="M65 0v693h413l-17 -117h-232v-184h202v-117h-202v-275h-164z" />
    <glyph glyph-name="uni1E1E" unicode="&#x1e1e;" horiz-adv-x="487" 
d="M281 937c55 0 94 -39 94 -90s-39 -90 -94 -90s-93 39 -93 90s38 90 93 90zM65 0v693h413l-17 -117h-232v-184h202v-117h-202v-275h-164z" />
    <glyph glyph-name="uni0191" unicode="&#x191;" horiz-adv-x="487" 
d="M461 576h-232v-184h202v-117h-202v-306c0 -128 -81 -191 -201 -191c-65 0 -109 19 -141 43l53 97c24 -12 40 -21 70 -21c34 0 55 20 55 61v735h413z" />
    <glyph glyph-name="G" unicode="G" horiz-adv-x="645" 
d="M365 710c101 0 174 -35 231 -85l-83 -87c-47 36 -85 53 -141 53c-97 0 -169 -72 -169 -244c0 -182 48 -244 144 -244c34 0 65 7 94 23v157h-90l-16 116h265v-343c-72 -46 -162 -73 -249 -73c-212 0 -318 127 -318 364c0 235 146 363 332 363z" />
    <glyph glyph-name="uni01F4" unicode="&#x1f4;" horiz-adv-x="645" 
d="M433 956l59 -118l-240 -87l-40 80zM365 710c101 0 174 -35 231 -85l-83 -87c-47 36 -85 53 -141 53c-97 0 -169 -72 -169 -244c0 -182 48 -244 144 -244c34 0 65 7 94 23v157h-90l-16 116h265v-343c-72 -46 -162 -73 -249 -73c-212 0 -318 127 -318 364
c0 235 146 363 332 363z" />
    <glyph glyph-name="Gbreve" unicode="&#x11e;" horiz-adv-x="645" 
d="M351 751c-105 0 -164 77 -172 162l87 15c12 -38 39 -68 85 -68s73 30 86 68l87 -15c-8 -85 -68 -162 -173 -162zM365 710c101 0 174 -35 231 -85l-83 -87c-47 36 -85 53 -141 53c-97 0 -169 -72 -169 -244c0 -182 48 -244 144 -244c34 0 65 7 94 23v157h-90l-16 116h265
v-343c-72 -46 -162 -73 -249 -73c-212 0 -318 127 -318 364c0 235 146 363 332 363z" />
    <glyph glyph-name="Gcaron" unicode="&#x1e6;" horiz-adv-x="645" 
d="M485 944l56 -65l-141 -129h-96l-142 129l57 65l133 -84zM365 710c101 0 174 -35 231 -85l-83 -87c-47 36 -85 53 -141 53c-97 0 -169 -72 -169 -244c0 -182 48 -244 144 -244c34 0 65 7 94 23v157h-90l-16 116h265v-343c-72 -46 -162 -73 -249 -73
c-212 0 -318 127 -318 364c0 235 146 363 332 363z" />
    <glyph glyph-name="Gcircumflex" unicode="&#x11c;" horiz-adv-x="645" 
d="M219 755l-57 65l142 129h96l141 -129l-56 -65l-133 84zM365 710c101 0 174 -35 231 -85l-83 -87c-47 36 -85 53 -141 53c-97 0 -169 -72 -169 -244c0 -182 48 -244 144 -244c34 0 65 7 94 23v157h-90l-16 116h265v-343c-72 -46 -162 -73 -249 -73
c-212 0 -318 127 -318 364c0 235 146 363 332 363z" />
    <glyph glyph-name="uni0122" unicode="&#x122;" horiz-adv-x="645" 
d="M365 710c101 0 174 -35 231 -85l-83 -87c-47 36 -85 53 -141 53c-97 0 -169 -72 -169 -244c0 -182 48 -244 144 -244c34 0 65 7 94 23v157h-90l-16 116h265v-343c-72 -46 -162 -73 -249 -73c-212 0 -318 127 -318 364c0 235 146 363 332 363zM348 -68c46 0 79 -33 79 -77
c0 -26 -8 -46 -27 -84l-46 -96h-79l27 115c-19 15 -33 36 -33 65c0 42 33 77 79 77z" />
    <glyph glyph-name="Gdotaccent" unicode="&#x120;" horiz-adv-x="645" 
d="M351 937c55 0 94 -39 94 -90s-39 -90 -94 -90s-93 39 -93 90s38 90 93 90zM365 710c101 0 174 -35 231 -85l-83 -87c-47 36 -85 53 -141 53c-97 0 -169 -72 -169 -244c0 -182 48 -244 144 -244c34 0 65 7 94 23v157h-90l-16 116h265v-343c-72 -46 -162 -73 -249 -73
c-212 0 -318 127 -318 364c0 235 146 363 332 363z" />
    <glyph glyph-name="uni0193" unicode="&#x193;" horiz-adv-x="612" 
d="M627 851c60 0 104 -17 135 -37l-46 -98c-23 12 -42 19 -68 19c-34 0 -52 -19 -52 -62v-48l-77 -80c-47 28 -91 46 -147 46c-97 0 -169 -72 -169 -244c0 -182 48 -244 144 -244c34 0 65 7 94 23v157h-90l-16 116h265v-343c-71 -46 -161 -73 -252 -73
c-209 0 -315 127 -315 364c0 235 150 363 313 363c44 0 81 -8 111 -21c3 101 58 162 170 162z" />
    <glyph glyph-name="uni0241" unicode="&#x241;" horiz-adv-x="509" 
d="M147 0v330l55 15c80 23 117 59 117 140c0 65 -36 106 -100 106c-49 0 -90 -18 -136 -56l-79 83c65 61 142 92 237 92c154 0 248 -88 248 -217c0 -117 -60 -170 -153 -205l-25 -9v-279h-164z" />
    <glyph glyph-name="uni01E4" unicode="&#x1e4;" horiz-adv-x="665" 
d="M663 271v-95h-63v-120c-71 -46 -161 -73 -250 -73c-211 0 -317 127 -317 364c0 235 147 363 331 363c102 0 174 -35 232 -85l-82 -87c-48 36 -86 53 -142 53c-97 0 -169 -72 -169 -244c0 -182 48 -244 144 -244c37 0 70 7 106 22v51h-108v95h108v43h-104l-14 100h265
v-143h63z" />
    <glyph glyph-name="uni021C" unicode="&#x21c;" horiz-adv-x="520" 
d="M236 710c148 0 237 -78 237 -187c0 -85 -51 -144 -155 -165c107 -12 176 -60 176 -163c0 -133 -119 -252 -425 -308l-13 121c218 56 266 116 266 194c0 62 -40 94 -124 94h-73l20 118h56c66 0 104 32 104 91c0 50 -26 86 -91 86c-47 0 -92 -18 -140 -56l-76 83
c64 61 144 92 238 92z" />
    <glyph glyph-name="H" unicode="H" horiz-adv-x="666" 
d="M437 0v297h-208v-297h-164v693h164v-268h208v268h164v-693h-164z" />
    <glyph glyph-name="Hbar" unicode="&#x126;" horiz-adv-x="677" 
d="M664 592v-92h-57v-500h-164v297h-209v-297h-164v500h-57v92h57v101h164v-101h209v101h164v-101h57zM443 425v75h-209v-75h209z" />
    <glyph glyph-name="uni021E" unicode="&#x21e;" horiz-adv-x="666" 
d="M466 944l56 -65l-141 -129h-96l-142 129l57 65l133 -84zM437 0v297h-208v-297h-164v693h164v-268h208v268h164v-693h-164z" />
    <glyph glyph-name="Hcircumflex" unicode="&#x124;" horiz-adv-x="666" 
d="M200 755l-57 65l142 129h96l141 -129l-56 -65l-133 84zM437 0v297h-208v-297h-164v693h164v-268h208v268h164v-693h-164z" />
    <glyph glyph-name="uni1E24" unicode="&#x1e24;" horiz-adv-x="666" 
d="M437 0v297h-208v-297h-164v693h164v-268h208v268h164v-693h-164zM334 -239c-56 0 -94 38 -94 89s38 90 94 90c54 0 93 -39 93 -90s-39 -89 -93 -89z" />
    <glyph glyph-name="uniA7AA" unicode="&#xa7aa;" horiz-adv-x="807" 
d="M579 693h164v-693h-164v297h-209v-297h-164v576h-28c-30 0 -46 -15 -46 -42c0 -22 7 -42 17 -65l-101 -45c-23 34 -44 73 -44 120c0 92 71 149 183 149h183v-268h209v268z" />
    <glyph glyph-name="uniA78D" unicode="&#xa78d;" horiz-adv-x="619" 
d="M390 693h164v-693h-164v256c-46 -36 -92 -53 -154 -53c-135 0 -215 92 -215 238v252h162v-250c0 -82 31 -118 100 -118c50 0 82 15 107 39v329z" />
    <glyph glyph-name="uniA78D.ss02" horiz-adv-x="598" 
d="M369 0v245l-343 -1v449h164v-320h179v320h164v-693h-164z" />
    <glyph glyph-name="uni01F6" unicode="&#x1f6;" horiz-adv-x="951" 
d="M880 531c15 -81 29 -172 29 -283c0 -189 -132 -265 -259 -265c-116 0 -213 60 -213 197v117h-208v-297h-164v693h164v-268h208v268h164v-510c0 -61 23 -84 60 -84c43 0 90 39 90 162c0 82 -11 177 -27 270h156z" />
    <glyph glyph-name="I" unicode="I" horiz-adv-x="293" 
d="M229 693v-693h-164v693h164z" />
    <glyph glyph-name="IJ" unicode="&#x132;" horiz-adv-x="610" 
d="M229 693v-693h-164v693h164zM549 693v-588c0 -175 -106 -236 -223 -274l-44 116c90 35 103 82 103 164v582h164z" />
    <glyph glyph-name="Iacute" unicode="&#xcd;" horiz-adv-x="293" 
d="M227 956l59 -118l-240 -87l-40 80zM229 693v-693h-164v693h164z" />
    <glyph glyph-name="Iacute.loclHUN" horiz-adv-x="293" 
d="M171 965l117 -67l-143 -157l-71 41zM229 693v-693h-164v693h164z" />
    <glyph glyph-name="Ibreve" unicode="&#x12c;" horiz-adv-x="293" 
d="M146 751c-105 0 -164 77 -172 162l87 15c12 -38 39 -68 85 -68s73 30 86 68l87 -15c-8 -85 -68 -162 -173 -162zM229 693v-693h-164v693h164z" />
    <glyph glyph-name="uni01CF" unicode="&#x1cf;" horiz-adv-x="293" 
d="M280 944l56 -65l-141 -129h-96l-142 129l57 65l133 -84zM229 693v-693h-164v693h164z" />
    <glyph glyph-name="Icircumflex" unicode="&#xce;" horiz-adv-x="293" 
d="M13 755l-57 65l142 129h96l141 -129l-56 -65l-133 84zM229 693v-693h-164v693h164z" />
    <glyph glyph-name="uni0208" unicode="&#x208;" horiz-adv-x="293" 
d="M16 986l97 -197l-81 -38l-122 182zM192 986l88 -197l-83 -33l-113 180zM229 693v-693h-164v693h164z" />
    <glyph glyph-name="Idieresis" unicode="&#xcf;" horiz-adv-x="293" 
d="M29 925c46 0 81 -35 81 -79s-35 -79 -81 -79c-45 0 -81 35 -81 79s36 79 81 79zM260 925c47 0 81 -35 81 -79s-34 -79 -81 -79c-44 0 -80 35 -80 79s36 79 80 79zM229 693v-693h-164v693h164z" />
    <glyph glyph-name="uni1E2E" unicode="&#x1e2e;" horiz-adv-x="293" 
d="M217 1097l86 -84l-158 -141l-59 54zM24 906c44 0 81 -35 81 -79s-37 -79 -81 -79c-46 0 -81 35 -81 79s35 79 81 79zM268 906c45 0 81 -35 81 -79s-36 -79 -81 -79c-46 0 -81 35 -81 79s35 79 81 79zM229 693v-693h-164v693h164z" />
    <glyph glyph-name="Idotaccent" unicode="&#x130;" horiz-adv-x="293" 
d="M146 937c55 0 94 -39 94 -90s-39 -90 -94 -90s-93 39 -93 90s38 90 93 90zM229 693v-693h-164v693h164z" />
    <glyph glyph-name="uni1ECA" unicode="&#x1eca;" horiz-adv-x="293" 
d="M229 693v-693h-164v693h164zM147 -239c-56 0 -94 38 -94 89s38 90 94 90c54 0 93 -39 93 -90s-39 -89 -93 -89z" />
    <glyph glyph-name="Igrave" unicode="&#xcc;" horiz-adv-x="293" 
d="M62 956l221 -125l-40 -80l-240 87zM229 693v-693h-164v693h164z" />
    <glyph glyph-name="uni1EC8" unicode="&#x1ec8;" horiz-adv-x="293" 
d="M99 764v89c49 3 71 12 71 38c0 21 -16 31 -40 31c-23 0 -40 -5 -60 -13l-26 66c28 16 62 26 109 26c81 0 124 -43 124 -102c0 -52 -30 -83 -84 -93v-42h-94zM229 693v-693h-164v693h164z" />
    <glyph glyph-name="uni020A" unicode="&#x20a;" horiz-adv-x="293" 
d="M146 951c105 0 165 -77 173 -172l-87 -15c-13 48 -40 77 -86 77s-73 -29 -85 -77l-87 15c8 95 67 172 172 172zM229 693v-693h-164v693h164z" />
    <glyph glyph-name="Imacron" unicode="&#x12a;" horiz-adv-x="293" 
d="M298 781h-305v110h305v-110zM229 693v-693h-164v693h164z" />
    <glyph glyph-name="Iogonek" unicode="&#x12e;" horiz-adv-x="293" 
d="M65 693h164v-693h-29c-99 -37 -118 -74 -118 -102c0 -30 17 -46 53 -46c19 0 38 3 61 8l-11 -98c-22 -5 -44 -8 -70 -8c-85 0 -147 45 -147 117c0 62 36 105 97 137v685z" />
    <glyph glyph-name="uni0196" unicode="&#x196;" horiz-adv-x="391" 
d="M343 123l53 -98c-31 -23 -76 -42 -141 -42c-120 0 -200 63 -200 190v520h164v-530c0 -41 20 -61 54 -61c30 0 46 8 70 21z" />
    <glyph glyph-name="uni0197" unicode="&#x197;" horiz-adv-x="330" 
d="M324 420v-121h-77v-299h-164v299h-77v121h77v273h164v-273h77z" />
    <glyph glyph-name="Itilde" unicode="&#x128;" horiz-adv-x="293" 
d="M204 761c-28 0 -47 8 -67 23c-18 13 -30 22 -47 22c-24 0 -37 -16 -53 -44l-79 38c25 64 69 118 129 118c31 0 49 -10 70 -24c18 -13 30 -21 46 -21c22 0 36 15 52 44l79 -39c-26 -67 -71 -117 -130 -117zM229 693v-693h-164v693h164z" />
    <glyph glyph-name="J" unicode="J" horiz-adv-x="317" 
d="M256 693v-588c0 -175 -106 -236 -223 -274l-44 116c90 35 103 82 103 164v582h164z" />
    <glyph glyph-name="Jcircumflex" unicode="&#x134;" horiz-adv-x="317" 
d="M41 755l-57 65l142 129h96l141 -129l-56 -65l-133 84zM256 693v-588c0 -175 -106 -236 -223 -274l-44 116c90 35 103 82 103 164v582h164z" />
    <glyph glyph-name="uniA7B2" unicode="&#xa7b2;" horiz-adv-x="354" 
d="M398 -44l-29 -66c-27 12 -62 26 -93 34c-26 -98 -96 -146 -211 -146c-99 0 -153 46 -153 119c0 82 62 128 171 128c17 0 31 -1 42 -2v670h164v-662c0 -11 0 -22 -1 -32c42 -12 74 -25 110 -43zM59 -139c46 0 62 24 65 86c-10 1 -22 2 -41 2c-52 0 -73 -16 -73 -48
c0 -25 15 -40 49 -40z" />
    <glyph glyph-name="uni0248" unicode="&#x248;" horiz-adv-x="337" 
d="M333 404v-122h-77v-177c0 -175 -106 -236 -223 -274l-44 116c90 35 103 82 103 164v171h-78v122h78v289h164v-289h77z" />
    <glyph glyph-name="K" unicode="K" horiz-adv-x="633" 
d="M229 693v-693h-164v693h164zM627 693l-221 -311l239 -382h-190l-221 370l220 323h173z" />
    <glyph glyph-name="uni01E8" unicode="&#x1e8;" horiz-adv-x="633" 
d="M463 944l56 -65l-141 -129h-96l-142 129l57 65l133 -84zM229 693v-693h-164v693h164zM627 693l-221 -311l239 -382h-190l-221 370l220 323h173z" />
    <glyph glyph-name="uni0136" unicode="&#x136;" horiz-adv-x="633" 
d="M229 693v-693h-164v693h164zM627 693l-221 -311l239 -382h-190l-221 370l220 323h173zM325 -68c46 0 79 -33 79 -77c0 -26 -8 -46 -27 -84l-46 -96h-79l27 115c-19 15 -33 36 -33 65c0 42 33 77 79 77z" />
    <glyph glyph-name="uni0198" unicode="&#x198;" horiz-adv-x="653" 
d="M455 0l-221 370l139 221c52 86 95 119 180 119c51 0 87 -18 113 -37l-44 -94c-11 7 -24 14 -46 14c-27 0 -42 -8 -70 -52l-101 -159l240 -382h-190zM229 693v-693h-164v693h164z" />
    <glyph glyph-name="L" unicode="L" horiz-adv-x="513" 
d="M229 693v-563h270l-17 -130h-417v693h164z" />
    <glyph glyph-name="uni01C7" unicode="&#x1c7;" horiz-adv-x="807" 
d="M229 693v-563h270l-17 -130h-417v693h164zM746 693v-588c0 -175 -106 -236 -223 -274l-44 116c90 35 103 82 103 164v582h164z" />
    <glyph glyph-name="Lacute" unicode="&#x139;" horiz-adv-x="513" 
d="M228 956l59 -118l-240 -87l-40 80zM229 693v-563h270l-17 -130h-417v693h164z" />
    <glyph glyph-name="uni023D" unicode="&#x23d;" horiz-adv-x="530" 
d="M246 130h270l-17 -130h-417v302h-76v122h76v269h164v-269h78v-122h-78v-172z" />
    <glyph glyph-name="uniA7AD" unicode="&#xa7ad;" horiz-adv-x="613" 
d="M328 130h271l-17 -130h-418v252c-112 3 -163 55 -163 131s54 117 126 117c14 0 27 -2 37 -4v197h164v-348c43 2 77 6 121 14l12 -85c-43 -10 -86 -15 -133 -18v-126zM106 384c0 -29 21 -41 58 -41v71c-8 2 -15 3 -25 3c-21 0 -33 -12 -33 -33z" />
    <glyph glyph-name="Lcaron" unicode="&#x13d;" horiz-adv-x="513" 
d="M358 478l55 215l-119 17l-23 -219zM229 693v-563h270l-17 -130h-417v693h164z" />
    <glyph glyph-name="uni1E3C" unicode="&#x1e3c;" horiz-adv-x="513" 
d="M229 693v-563h270l-17 -130h-417v693h164zM140 -265l-56 65l141 137h97l141 -137l-56 -65l-133 92z" />
    <glyph glyph-name="uni013B" unicode="&#x13b;" horiz-adv-x="513" 
d="M229 693v-563h270l-17 -130h-417v693h164zM274 -68c46 0 79 -33 79 -77c0 -26 -8 -46 -27 -84l-46 -96h-79l27 115c-19 15 -33 36 -33 65c0 42 33 77 79 77z" />
    <glyph glyph-name="Ldot" unicode="&#x13f;" horiz-adv-x="513" 
d="M229 693v-563h270l-17 -130h-417v693h164zM399 490c55 0 94 -39 94 -90s-39 -90 -94 -90s-93 39 -93 90s38 90 93 90z" />
    <glyph glyph-name="uni1E36" unicode="&#x1e36;" horiz-adv-x="513" 
d="M229 693v-563h270l-17 -130h-417v693h164zM274 -239c-56 0 -94 38 -94 89s38 90 94 90c54 0 93 -39 93 -90s-39 -89 -93 -89z" />
    <glyph glyph-name="uni01C8" unicode="&#x1c8;" horiz-adv-x="783" 
d="M643 811c55 0 94 -39 94 -90s-39 -90 -94 -90s-93 39 -93 90s38 90 93 90zM229 693v-563h270l-17 -130h-417v693h164zM722 531v-471c0 -173 -89 -236 -213 -281l-53 115c68 31 108 59 108 156v481h158z" />
    <glyph glyph-name="Lslash" unicode="&#x141;" horiz-adv-x="553" 
d="M268 130h271l-17 -130h-418v224l-42 -26l-54 87l96 59v349h164v-247l128 79l54 -86l-182 -113v-196z" />
    <glyph glyph-name="M" unicode="M" horiz-adv-x="786" 
d="M701 693l52 -693h-161l-12 271c-5 97 -7 197 -2 283l-107 -481h-155l-114 481c7 -102 7 -188 3 -285l-12 -269h-160l52 693h207l104 -470l97 470h208z" />
    <glyph glyph-name="uni1E3E" unicode="&#x1e3e;" horiz-adv-x="786" 
d="M474 956l59 -118l-240 -87l-40 80zM701 693l52 -693h-161l-12 271c-5 97 -7 197 -2 283l-107 -481h-155l-114 481c7 -102 7 -188 3 -285l-12 -269h-160l52 693h207l104 -470l97 470h208z" />
    <glyph glyph-name="uni1E40" unicode="&#x1e40;" horiz-adv-x="786" 
d="M392 937c55 0 94 -39 94 -90s-39 -90 -94 -90s-93 39 -93 90s38 90 93 90zM701 693l52 -693h-161l-12 271c-5 97 -7 197 -2 283l-107 -481h-155l-114 481c7 -102 7 -188 3 -285l-12 -269h-160l52 693h207l104 -470l97 470h208z" />
    <glyph glyph-name="uni019C" unicode="&#x19c;" horiz-adv-x="915" 
d="M686 693h164v-693h-143l-12 64c-47 -56 -94 -81 -157 -81c-70 0 -121 35 -147 92c-54 -64 -102 -92 -169 -92c-106 0 -167 80 -167 194v516h164v-508c0 -50 20 -80 58 -80c35 0 61 26 93 67v5v516h165v-508c0 -50 20 -80 57 -80c38 0 63 21 94 68v520z" />
    <glyph glyph-name="N" unicode="N" horiz-adv-x="663" 
d="M599 693v-693h-209l-200 537c8 -63 21 -155 21 -283v-254h-146v693h204l205 -538c-9 56 -22 147 -22 258v280h147z" />
    <glyph glyph-name="uni01CA" unicode="&#x1ca;" horiz-adv-x="980" 
d="M599 693v-693h-209l-200 537c8 -63 21 -155 21 -283v-254h-146v693h204l205 -538c-9 56 -22 147 -22 258v280h147zM919 693v-588c0 -175 -106 -236 -223 -274l-44 116c90 35 103 82 103 164v582h164z" />
    <glyph glyph-name="Nacute" unicode="&#x143;" horiz-adv-x="663" 
d="M417 956l59 -118l-240 -87l-40 80zM599 693v-693h-209l-200 537c8 -63 21 -155 21 -283v-254h-146v693h204l205 -538c-9 56 -22 147 -22 258v280h147z" />
    <glyph glyph-name="Nacute.loclPLK" horiz-adv-x="663" 
d="M361 965l117 -67l-143 -157l-71 41zM599 693v-693h-209l-200 537c8 -63 21 -155 21 -283v-254h-146v693h204l205 -538c-9 56 -22 147 -22 258v280h147z" />
    <glyph glyph-name="Ncaron" unicode="&#x147;" horiz-adv-x="663" 
d="M470 944l56 -65l-141 -129h-96l-142 129l57 65l133 -84zM599 693v-693h-209l-200 537c8 -63 21 -155 21 -283v-254h-146v693h204l205 -538c-9 56 -22 147 -22 258v280h147z" />
    <glyph glyph-name="uni1E4A" unicode="&#x1e4a;" horiz-adv-x="663" 
d="M599 693v-693h-209l-200 537c8 -63 21 -155 21 -283v-254h-146v693h204l205 -538c-9 56 -22 147 -22 258v280h147zM199 -265l-56 65l141 137h97l141 -137l-56 -65l-133 92z" />
    <glyph glyph-name="uni0145" unicode="&#x145;" horiz-adv-x="663" 
d="M599 693v-693h-209l-200 537c8 -63 21 -155 21 -283v-254h-146v693h204l205 -538c-9 56 -22 147 -22 258v280h147zM333 -68c46 0 79 -33 79 -77c0 -26 -8 -46 -27 -84l-46 -96h-79l27 115c-19 15 -33 36 -33 65c0 42 33 77 79 77z" />
    <glyph glyph-name="uni1E44" unicode="&#x1e44;" horiz-adv-x="663" 
d="M336 937c55 0 94 -39 94 -90s-39 -90 -94 -90s-93 39 -93 90s38 90 93 90zM599 693v-693h-209l-200 537c8 -63 21 -155 21 -283v-254h-146v693h204l205 -538c-9 56 -22 147 -22 258v280h147z" />
    <glyph glyph-name="uni1E46" unicode="&#x1e46;" horiz-adv-x="663" 
d="M599 693v-693h-209l-200 537c8 -63 21 -155 21 -283v-254h-146v693h204l205 -538c-9 56 -22 147 -22 258v280h147zM333 -239c-56 0 -94 38 -94 89s38 90 94 90c54 0 93 -39 93 -90s-39 -89 -93 -89z" />
    <glyph glyph-name="uni01F8" unicode="&#x1f8;" horiz-adv-x="663" 
d="M251 956l221 -125l-40 -80l-240 87zM599 693v-693h-209l-200 537c8 -63 21 -155 21 -283v-254h-146v693h204l205 -538c-9 56 -22 147 -22 258v280h147z" />
    <glyph glyph-name="Eng" unicode="&#x14a;" horiz-adv-x="663" 
d="M452 693h147v-724c0 -128 -81 -191 -201 -191c-65 0 -110 19 -141 43l53 97c24 -12 40 -21 70 -21c34 0 54 20 54 61v42h-44l-200 537c8 -63 21 -155 21 -283v-254h-146v693h204l205 -538c-9 56 -22 147 -22 258v280z" />
    <glyph glyph-name="Eng.ss01" horiz-adv-x="654" 
d="M415 710c123 0 180 -80 180 -185v-556c0 -128 -80 -191 -201 -191c-64 0 -109 19 -141 43l54 97c23 -12 40 -21 70 -21c34 0 54 20 54 61v541c0 59 -21 89 -73 89c-54 0 -88 -24 -129 -68v-520h-164v693h143l13 -66c56 54 110 83 194 83z" />
    <glyph glyph-name="uni019D" unicode="&#x19d;" horiz-adv-x="663" 
d="M452 693h147v-693h-209l-200 537c8 -63 21 -155 21 -283v-286c0 -127 -75 -190 -186 -190c-64 0 -109 19 -141 43l54 94c23 -13 40 -22 70 -22c35 0 57 20 57 61v739h204l205 -538c-9 56 -22 147 -22 258v280z" />
    <glyph glyph-name="uni019D.ss01" horiz-adv-x="654" 
d="M415 710c123 0 180 -80 180 -185v-525h-164v499c0 59 -21 89 -73 89c-54 0 -88 -24 -129 -68v-551c0 -128 -81 -191 -201 -191c-65 0 -109 19 -141 43l53 97c24 -12 40 -21 70 -21c34 0 55 20 55 61v735h143l13 -66c56 54 110 83 194 83z" />
    <glyph glyph-name="uni01CB" unicode="&#x1cb;" horiz-adv-x="943" 
d="M803 811c55 0 94 -39 94 -90s-39 -90 -94 -90s-93 39 -93 90s38 90 93 90zM599 693v-693h-209l-200 537c8 -63 21 -155 21 -283v-254h-146v693h204l205 -538c-9 56 -22 147 -22 258v280h147zM882 531v-471c0 -173 -89 -236 -213 -281l-53 115c68 31 108 59 108 156v481
h158z" />
    <glyph glyph-name="uni0220" unicode="&#x220;" horiz-adv-x="654" 
d="M415 710c123 0 180 -80 180 -185v-735h-164v709c0 59 -21 89 -73 89c-54 0 -88 -24 -129 -68v-520h-164v693h143l13 -66c56 54 110 83 194 83z" />
    <glyph glyph-name="Ntilde" unicode="&#xd1;" horiz-adv-x="663" 
d="M394 761c-28 0 -47 8 -67 23c-18 13 -30 22 -47 22c-24 0 -37 -16 -53 -44l-79 38c25 64 69 118 129 118c31 0 49 -10 70 -24c18 -13 30 -21 46 -21c22 0 36 15 52 44l79 -39c-26 -67 -71 -117 -130 -117zM599 693v-693h-209l-200 537c8 -63 21 -155 21 -283v-254h-146
v693h204l205 -538c-9 56 -22 147 -22 258v280h147z" />
    <glyph glyph-name="O" unicode="O" horiz-adv-x="691" 
d="M345 710c196 0 313 -132 313 -363c0 -227 -117 -364 -313 -364c-195 0 -312 133 -312 364c0 226 117 363 312 363zM345 590c-92 0 -140 -68 -140 -243c0 -176 50 -244 140 -244c94 0 141 68 141 244c0 175 -48 243 -141 243z" />
    <glyph glyph-name="uni0222" unicode="&#x222;" horiz-adv-x="651" 
d="M487 400c84 -32 131 -94 131 -182c0 -125 -110 -235 -293 -235c-182 0 -292 105 -292 234c0 85 47 148 130 181c-58 31 -89 83 -89 153v142h164v-149c0 -58 20 -95 88 -95s88 41 88 95v149h164v-142c0 -67 -32 -119 -91 -151zM325 103c82 0 121 43 121 117
c0 69 -40 114 -121 114c-79 0 -120 -45 -120 -115c0 -73 42 -116 120 -116z" />
    <glyph glyph-name="Oacute" unicode="&#xd3;" horiz-adv-x="691" 
d="M426 956l59 -118l-240 -87l-40 80zM345 710c196 0 313 -132 313 -363c0 -227 -117 -364 -313 -364c-195 0 -312 133 -312 364c0 226 117 363 312 363zM345 590c-92 0 -140 -68 -140 -243c0 -176 50 -244 140 -244c94 0 141 68 141 244c0 175 -48 243 -141 243z" />
    <glyph glyph-name="Oacute.loclHUN" horiz-adv-x="691" 
d="M370 965l117 -67l-143 -157l-71 41zM345 710c196 0 313 -132 313 -363c0 -227 -117 -364 -313 -364c-195 0 -312 133 -312 364c0 226 117 363 312 363zM345 590c-92 0 -140 -68 -140 -243c0 -176 50 -244 140 -244c94 0 141 68 141 244c0 175 -48 243 -141 243z" />
    <glyph glyph-name="Oacute.loclPLK" horiz-adv-x="691" 
d="M370 965l117 -67l-143 -157l-71 41zM345 710c196 0 313 -132 313 -363c0 -227 -117 -364 -313 -364c-195 0 -312 133 -312 364c0 226 117 363 312 363zM345 590c-92 0 -140 -68 -140 -243c0 -176 50 -244 140 -244c94 0 141 68 141 244c0 175 -48 243 -141 243z" />
    <glyph glyph-name="Obreve" unicode="&#x14e;" horiz-adv-x="691" 
d="M345 751c-105 0 -164 77 -172 162l87 15c12 -38 39 -68 85 -68s73 30 86 68l87 -15c-8 -85 -68 -162 -173 -162zM345 710c196 0 313 -132 313 -363c0 -227 -117 -364 -313 -364c-195 0 -312 133 -312 364c0 226 117 363 312 363zM345 590c-92 0 -140 -68 -140 -243
c0 -176 50 -244 140 -244c94 0 141 68 141 244c0 175 -48 243 -141 243z" />
    <glyph glyph-name="uni01D1" unicode="&#x1d1;" horiz-adv-x="691" 
d="M479 944l56 -65l-141 -129h-96l-142 129l57 65l133 -84zM345 710c196 0 313 -132 313 -363c0 -227 -117 -364 -313 -364c-195 0 -312 133 -312 364c0 226 117 363 312 363zM345 590c-92 0 -140 -68 -140 -243c0 -176 50 -244 140 -244c94 0 141 68 141 244
c0 175 -48 243 -141 243z" />
    <glyph glyph-name="uni019F" unicode="&#x19f;" horiz-adv-x="691" 
d="M345 710c196 0 313 -132 313 -363c0 -227 -117 -364 -313 -364c-195 0 -312 133 -312 364c0 226 117 363 312 363zM345 590c-83 0 -134 -55 -143 -193h287c-9 138 -60 193 -144 193zM345 103c86 0 137 57 145 202h-289c8 -145 62 -202 144 -202z" />
    <glyph glyph-name="Ocircumflex" unicode="&#xd4;" horiz-adv-x="691" 
d="M212 755l-57 65l142 129h96l141 -129l-56 -65l-133 84zM345 710c196 0 313 -132 313 -363c0 -227 -117 -364 -313 -364c-195 0 -312 133 -312 364c0 226 117 363 312 363zM345 590c-92 0 -140 -68 -140 -243c0 -176 50 -244 140 -244c94 0 141 68 141 244
c0 175 -48 243 -141 243z" />
    <glyph glyph-name="uni1ED0" unicode="&#x1ed0;" horiz-adv-x="691" 
d="M579 1093l86 -84l-158 -140l-59 54zM212 721l-57 65l142 129h96l141 -129l-56 -65l-133 84zM345 710c196 0 313 -132 313 -363c0 -227 -117 -364 -313 -364c-195 0 -312 133 -312 364c0 226 117 363 312 363zM345 590c-92 0 -140 -68 -140 -243c0 -176 50 -244 140 -244
c94 0 141 68 141 244c0 175 -48 243 -141 243z" />
    <glyph glyph-name="uni1ED8" unicode="&#x1ed8;" horiz-adv-x="691" 
d="M212 755l-57 65l142 129h96l141 -129l-56 -65l-133 84zM345 710c196 0 313 -132 313 -363c0 -227 -117 -364 -313 -364c-195 0 -312 133 -312 364c0 226 117 363 312 363zM345 590c-92 0 -140 -68 -140 -243c0 -176 50 -244 140 -244c94 0 141 68 141 244
c0 175 -48 243 -141 243zM346 -239c-56 0 -94 38 -94 89s38 90 94 90c54 0 93 -39 93 -90s-39 -89 -93 -89z" />
    <glyph glyph-name="uni1ED2" unicode="&#x1ed2;" horiz-adv-x="691" 
d="M111 1093l131 -170l-59 -54l-158 140zM211 721l-57 65l142 129h96l141 -129l-56 -65l-133 84zM345 710c196 0 313 -132 313 -363c0 -227 -117 -364 -313 -364c-195 0 -312 133 -312 364c0 226 117 363 312 363zM345 590c-92 0 -140 -68 -140 -243
c0 -176 50 -244 140 -244c94 0 141 68 141 244c0 175 -48 243 -141 243z" />
    <glyph glyph-name="uni1ED4" unicode="&#x1ed4;" horiz-adv-x="691" 
d="M469 856v89c49 3 71 12 71 38c0 21 -16 31 -39 31c-24 0 -41 -5 -61 -13l-26 66c28 16 62 26 109 26c81 0 124 -43 124 -102c0 -52 -30 -83 -84 -93v-42h-94zM211 721l-57 65l142 129h96l141 -129l-56 -65l-133 84zM345 710c196 0 313 -132 313 -363
c0 -227 -117 -364 -313 -364c-195 0 -312 133 -312 364c0 226 117 363 312 363zM345 590c-92 0 -140 -68 -140 -243c0 -176 50 -244 140 -244c94 0 141 68 141 244c0 175 -48 243 -141 243z" />
    <glyph glyph-name="uni1ED6" unicode="&#x1ed6;" horiz-adv-x="691" 
d="M400 955c-28 0 -46 9 -66 22c-19 13 -31 21 -48 21c-24 0 -37 -14 -53 -42l-79 36c25 61 69 111 129 111c31 0 50 -10 70 -23c18 -12 30 -20 46 -20c23 0 36 14 53 41l79 -36c-26 -62 -71 -110 -131 -110zM210 721l-57 65l142 129h96l141 -129l-56 -65l-133 84zM345 710
c196 0 313 -132 313 -363c0 -227 -117 -364 -313 -364c-195 0 -312 133 -312 364c0 226 117 363 312 363zM345 590c-92 0 -140 -68 -140 -243c0 -176 50 -244 140 -244c94 0 141 68 141 244c0 175 -48 243 -141 243z" />
    <glyph glyph-name="uni020C" unicode="&#x20c;" horiz-adv-x="691" 
d="M215 986l97 -197l-81 -38l-122 182zM391 986l88 -197l-83 -33l-113 180zM345 710c196 0 313 -132 313 -363c0 -227 -117 -364 -313 -364c-195 0 -312 133 -312 364c0 226 117 363 312 363zM345 590c-92 0 -140 -68 -140 -243c0 -176 50 -244 140 -244
c94 0 141 68 141 244c0 175 -48 243 -141 243z" />
    <glyph glyph-name="Odieresis" unicode="&#xd6;" horiz-adv-x="691" 
d="M228 925c46 0 81 -35 81 -79s-35 -79 -81 -79c-45 0 -81 35 -81 79s36 79 81 79zM459 925c47 0 81 -35 81 -79s-34 -79 -81 -79c-44 0 -80 35 -80 79s36 79 80 79zM345 710c196 0 313 -132 313 -363c0 -227 -117 -364 -313 -364c-195 0 -312 133 -312 364
c0 226 117 363 312 363zM345 590c-92 0 -140 -68 -140 -243c0 -176 50 -244 140 -244c94 0 141 68 141 244c0 175 -48 243 -141 243z" />
    <glyph glyph-name="uni022A" unicode="&#x22a;" horiz-adv-x="691" 
d="M499 960h-305v109h305v-109zM229 904c45 0 80 -35 80 -79c0 -45 -35 -80 -80 -80s-81 35 -81 80c0 44 36 79 81 79zM460 904c46 0 81 -35 81 -79c0 -45 -35 -80 -81 -80c-44 0 -80 35 -80 80c0 44 36 79 80 79zM345 710c196 0 313 -132 313 -363
c0 -227 -117 -364 -313 -364c-195 0 -312 133 -312 364c0 226 117 363 312 363zM345 590c-92 0 -140 -68 -140 -243c0 -176 50 -244 140 -244c94 0 141 68 141 244c0 175 -48 243 -141 243z" />
    <glyph glyph-name="uni022E" unicode="&#x22e;" horiz-adv-x="691" 
d="M345 937c55 0 94 -39 94 -90s-39 -90 -94 -90s-93 39 -93 90s38 90 93 90zM345 710c196 0 313 -132 313 -363c0 -227 -117 -364 -313 -364c-195 0 -312 133 -312 364c0 226 117 363 312 363zM345 590c-92 0 -140 -68 -140 -243c0 -176 50 -244 140 -244
c94 0 141 68 141 244c0 175 -48 243 -141 243z" />
    <glyph glyph-name="uni0230" unicode="&#x230;" horiz-adv-x="691" 
d="M498 967h-305v109h305v-109zM344 915c55 0 93 -39 93 -90c0 -50 -38 -89 -93 -89s-93 39 -93 89c0 51 38 90 93 90zM345 710c196 0 313 -132 313 -363c0 -227 -117 -364 -313 -364c-195 0 -312 133 -312 364c0 226 117 363 312 363zM345 590c-92 0 -140 -68 -140 -243
c0 -176 50 -244 140 -244c94 0 141 68 141 244c0 175 -48 243 -141 243z" />
    <glyph glyph-name="uni1ECC" unicode="&#x1ecc;" horiz-adv-x="691" 
d="M345 710c196 0 313 -132 313 -363c0 -227 -117 -364 -313 -364c-195 0 -312 133 -312 364c0 226 117 363 312 363zM345 590c-92 0 -140 -68 -140 -243c0 -176 50 -244 140 -244c94 0 141 68 141 244c0 175 -48 243 -141 243zM346 -239c-56 0 -94 38 -94 89s38 90 94 90
c54 0 93 -39 93 -90s-39 -89 -93 -89z" />
    <glyph glyph-name="Ograve" unicode="&#xd2;" horiz-adv-x="691" 
d="M261 956l221 -125l-40 -80l-240 87zM345 710c196 0 313 -132 313 -363c0 -227 -117 -364 -313 -364c-195 0 -312 133 -312 364c0 226 117 363 312 363zM345 590c-92 0 -140 -68 -140 -243c0 -176 50 -244 140 -244c94 0 141 68 141 244c0 175 -48 243 -141 243z" />
    <glyph glyph-name="uni1ECE" unicode="&#x1ece;" horiz-adv-x="691" 
d="M298 764v89c49 3 71 12 71 38c0 21 -16 31 -40 31c-23 0 -40 -5 -60 -13l-26 66c28 16 62 26 109 26c81 0 124 -43 124 -102c0 -52 -30 -83 -84 -93v-42h-94zM345 710c196 0 313 -132 313 -363c0 -227 -117 -364 -313 -364c-195 0 -312 133 -312 364
c0 226 117 363 312 363zM345 590c-92 0 -140 -68 -140 -243c0 -176 50 -244 140 -244c94 0 141 68 141 244c0 175 -48 243 -141 243z" />
    <glyph glyph-name="Ohorn" unicode="&#x1a0;" horiz-adv-x="715" 
d="M713 685c0 -69 -38 -109 -102 -122c31 -57 47 -130 47 -216c0 -227 -117 -364 -313 -364c-195 0 -312 133 -312 364c0 226 117 363 312 363c87 0 159 -26 212 -76c34 4 48 22 48 56c0 30 -6 48 -13 68l102 15c10 -19 19 -46 19 -88zM345 103c94 0 141 68 141 244
c0 175 -48 243 -141 243c-92 0 -140 -68 -140 -243c0 -176 50 -244 140 -244z" />
    <glyph glyph-name="uni1EDA" unicode="&#x1eda;" horiz-adv-x="715" 
d="M485 838l-239 -87l-41 80l222 125zM713 685c0 -69 -38 -109 -102 -122c31 -57 47 -130 47 -216c0 -227 -117 -364 -313 -364c-195 0 -312 133 -312 364c0 226 117 363 312 363c87 0 159 -26 212 -76c34 4 48 22 48 56c0 30 -6 48 -13 68l102 15c10 -19 19 -46 19 -88z
M345 103c94 0 141 68 141 244c0 175 -48 243 -141 243c-92 0 -140 -68 -140 -243c0 -176 50 -244 140 -244z" />
    <glyph glyph-name="uni1EE2" unicode="&#x1ee2;" horiz-adv-x="715" 
d="M713 685c0 -69 -38 -109 -102 -122c31 -57 47 -130 47 -216c0 -227 -117 -364 -313 -364c-195 0 -312 133 -312 364c0 226 117 363 312 363c87 0 159 -26 212 -76c34 4 48 22 48 56c0 30 -6 48 -13 68l102 15c10 -19 19 -46 19 -88zM345 103c94 0 141 68 141 244
c0 175 -48 243 -141 243c-92 0 -140 -68 -140 -243c0 -176 50 -244 140 -244zM345 -60c55 0 94 -39 94 -90s-39 -89 -94 -89s-93 38 -93 89s38 90 93 90z" />
    <glyph glyph-name="uni1EDC" unicode="&#x1edc;" horiz-adv-x="715" 
d="M482 831l-41 -80l-239 87l59 118zM713 685c0 -69 -38 -109 -102 -122c31 -57 47 -130 47 -216c0 -227 -117 -364 -313 -364c-195 0 -312 133 -312 364c0 226 117 363 312 363c87 0 159 -26 212 -76c34 4 48 22 48 56c0 30 -6 48 -13 68l102 15c10 -19 19 -46 19 -88z
M345 103c94 0 141 68 141 244c0 175 -48 243 -141 243c-92 0 -140 -68 -140 -243c0 -176 50 -244 140 -244z" />
    <glyph glyph-name="uni1EDE" unicode="&#x1ede;" horiz-adv-x="715" 
d="M329 922c-24 0 -40 -5 -60 -13l-26 66c28 16 62 26 109 26c81 0 124 -43 124 -102c0 -52 -30 -83 -84 -93v-42h-94v89c49 3 71 12 71 38c0 21 -16 31 -40 31zM713 685c0 -69 -38 -109 -102 -122c31 -57 47 -130 47 -216c0 -227 -117 -364 -313 -364
c-195 0 -312 133 -312 364c0 226 117 363 312 363c87 0 159 -26 212 -76c34 4 48 22 48 56c0 30 -6 48 -13 68l102 15c10 -19 19 -46 19 -88zM345 103c94 0 141 68 141 244c0 175 -48 243 -141 243c-92 0 -140 -68 -140 -243c0 -176 50 -244 140 -244z" />
    <glyph glyph-name="uni1EE0" unicode="&#x1ee0;" horiz-adv-x="715" 
d="M289 806c-24 0 -37 -16 -53 -44l-79 38c25 64 69 118 129 118c31 0 50 -10 70 -24c18 -13 30 -21 46 -21c23 0 36 15 53 44l79 -39c-26 -67 -71 -117 -131 -117c-28 0 -47 8 -66 23c-19 13 -31 22 -48 22zM713 685c0 -69 -38 -109 -102 -122c31 -57 47 -130 47 -216
c0 -227 -117 -364 -313 -364c-195 0 -312 133 -312 364c0 226 117 363 312 363c87 0 159 -26 212 -76c34 4 48 22 48 56c0 30 -6 48 -13 68l102 15c10 -19 19 -46 19 -88zM345 103c94 0 141 68 141 244c0 175 -48 243 -141 243c-92 0 -140 -68 -140 -243
c0 -176 50 -244 140 -244z" />
    <glyph glyph-name="Ohungarumlaut" unicode="&#x150;" horiz-adv-x="691" 
d="M308 956l100 -57l-126 -159l-70 38zM479 947l97 -62l-135 -152l-67 42zM345 710c196 0 313 -132 313 -363c0 -227 -117 -364 -313 -364c-195 0 -312 133 -312 364c0 226 117 363 312 363zM345 590c-92 0 -140 -68 -140 -243c0 -176 50 -244 140 -244c94 0 141 68 141 244
c0 175 -48 243 -141 243z" />
    <glyph glyph-name="uni01A2" unicode="&#x1a2;" horiz-adv-x="960" 
d="M692 711c125 0 204 -65 204 -192v-729h-164v735c0 50 -22 71 -60 71c-29 0 -50 -7 -73 -17c38 -59 59 -137 59 -232c0 -227 -117 -364 -313 -364c-195 0 -312 133 -312 364c0 226 117 363 312 363c69 0 130 -18 179 -53c50 34 102 54 168 54zM345 103
c94 0 141 68 141 244c0 175 -48 243 -141 243c-92 0 -140 -68 -140 -243c0 -176 50 -244 140 -244z" />
    <glyph glyph-name="uni020E" unicode="&#x20e;" horiz-adv-x="691" 
d="M345 951c105 0 165 -77 173 -172l-87 -15c-13 48 -40 77 -86 77s-73 -29 -85 -77l-87 15c8 95 67 172 172 172zM345 710c196 0 313 -132 313 -363c0 -227 -117 -364 -313 -364c-195 0 -312 133 -312 364c0 226 117 363 312 363zM345 590c-92 0 -140 -68 -140 -243
c0 -176 50 -244 140 -244c94 0 141 68 141 244c0 175 -48 243 -141 243z" />
    <glyph glyph-name="Omacron" unicode="&#x14c;" horiz-adv-x="691" 
d="M497 781h-305v110h305v-110zM345 710c196 0 313 -132 313 -363c0 -227 -117 -364 -313 -364c-195 0 -312 133 -312 364c0 226 117 363 312 363zM345 590c-92 0 -140 -68 -140 -243c0 -176 50 -244 140 -244c94 0 141 68 141 244c0 175 -48 243 -141 243z" />
    <glyph glyph-name="uni1E52" unicode="&#x1e52;" horiz-adv-x="691" 
d="M427 1110l59 -119l-240 -86l-40 80zM497 761h-305v109h305v-109zM345 710c196 0 313 -132 313 -363c0 -227 -117 -364 -313 -364c-195 0 -312 133 -312 364c0 226 117 363 312 363zM345 590c-92 0 -140 -68 -140 -243c0 -176 50 -244 140 -244c94 0 141 68 141 244
c0 175 -48 243 -141 243z" />
    <glyph glyph-name="uni1E50" unicode="&#x1e50;" horiz-adv-x="691" 
d="M261 1110l221 -125l-40 -80l-240 86zM497 761h-305v109h305v-109zM345 710c196 0 313 -132 313 -363c0 -227 -117 -364 -313 -364c-195 0 -312 133 -312 364c0 226 117 363 312 363zM345 590c-92 0 -140 -68 -140 -243c0 -176 50 -244 140 -244c94 0 141 68 141 244
c0 175 -48 243 -141 243z" />
    <glyph glyph-name="uniA7B6" unicode="&#xa7b6;" horiz-adv-x="887" 
d="M760 693c39 -88 79 -201 79 -391c0 -223 -82 -319 -226 -319c-88 0 -146 39 -171 124c-22 -85 -84 -124 -164 -124c-152 0 -230 94 -230 319c0 190 40 303 78 391h152c-36 -108 -66 -214 -66 -382c0 -152 23 -208 84 -208c38 0 66 22 66 90v206h162v-206
c0 -67 23 -90 68 -90c55 0 83 48 83 207c0 169 -33 275 -73 383h158z" />
    <glyph glyph-name="uni01EA" unicode="&#x1ea;" horiz-adv-x="691" 
d="M658 347c0 -180 -73 -303 -201 -347c-99 -37 -118 -74 -118 -102c0 -30 17 -46 53 -46c19 0 38 3 61 8l-11 -98c-22 -5 -44 -8 -70 -8c-85 0 -147 45 -147 117c0 49 23 87 63 116c-161 24 -255 153 -255 360c0 226 117 363 312 363c196 0 313 -132 313 -363zM345 103
c94 0 141 68 141 244c0 175 -48 243 -141 243c-92 0 -140 -68 -140 -243c0 -176 50 -244 140 -244z" />
    <glyph glyph-name="uni01EC" unicode="&#x1ec;" horiz-adv-x="691" 
d="M497 891v-110h-305v110h305zM658 347c0 -180 -73 -303 -201 -347c-99 -37 -118 -74 -118 -102c0 -30 17 -46 53 -46c19 0 38 3 61 8l-11 -98c-22 -5 -44 -8 -70 -8c-85 0 -147 45 -147 117c0 49 23 87 63 116c-161 24 -255 153 -255 360c0 226 117 363 312 363
c196 0 313 -132 313 -363zM345 103c94 0 141 68 141 244c0 175 -48 243 -141 243c-92 0 -140 -68 -140 -243c0 -176 50 -244 140 -244z" />
    <glyph glyph-name="uni0186" unicode="&#x186;" horiz-adv-x="575" 
d="M242 710c179 0 300 -130 300 -362c0 -237 -127 -365 -314 -365c-99 0 -172 43 -220 89l73 93c41 -30 80 -55 139 -55c89 0 150 65 150 238c0 176 -55 241 -138 241c-54 0 -96 -19 -137 -50l-79 95c60 48 129 76 226 76z" />
    <glyph glyph-name="Oslash" unicode="&#xd8;" horiz-adv-x="691" 
d="M514 667c92 -56 144 -166 144 -320c0 -227 -117 -364 -313 -364c-17 0 -33 1 -49 3l-36 -120l-124 32l40 129c-92 57 -143 167 -143 320c0 226 117 363 312 363c17 0 34 -1 50 -3l37 121l123 -33zM345 590c-92 0 -140 -68 -140 -243c0 -101 13 -163 38 -199l132 440
c-9 1 -19 2 -30 2zM345 103c94 0 141 68 141 244c0 102 -13 164 -38 199l-133 -441c10 -1 20 -2 30 -2z" />
    <glyph glyph-name="Oslashacute" unicode="&#x1fe;" horiz-adv-x="691" 
d="M484 872l-240 -87l-40 80l221 125zM514 667c92 -56 144 -166 144 -320c0 -227 -117 -364 -313 -364c-17 0 -33 1 -49 3l-36 -120l-124 32l40 129c-92 57 -143 167 -143 320c0 226 117 363 312 363c17 0 34 -1 50 -3l37 121l123 -33zM345 590c-92 0 -140 -68 -140 -243
c0 -101 13 -163 38 -199l132 440c-9 1 -19 2 -30 2zM345 103c94 0 141 68 141 244c0 102 -13 164 -38 199l-133 -441c10 -1 20 -2 30 -2z" />
    <glyph glyph-name="Otilde" unicode="&#xd5;" horiz-adv-x="691" 
d="M403 761c-28 0 -47 8 -67 23c-18 13 -30 22 -47 22c-24 0 -37 -16 -53 -44l-79 38c25 64 69 118 129 118c31 0 49 -10 70 -24c18 -13 30 -21 46 -21c22 0 36 15 52 44l79 -39c-26 -67 -71 -117 -130 -117zM345 710c196 0 313 -132 313 -363c0 -227 -117 -364 -313 -364
c-195 0 -312 133 -312 364c0 226 117 363 312 363zM345 590c-92 0 -140 -68 -140 -243c0 -176 50 -244 140 -244c94 0 141 68 141 244c0 175 -48 243 -141 243z" />
    <glyph glyph-name="uni1E4C" unicode="&#x1e4c;" horiz-adv-x="691" 
d="M426 1136l59 -118l-240 -87l-40 80zM403 756c-28 0 -47 8 -67 22c-18 14 -30 22 -47 22c-24 0 -37 -15 -53 -44l-79 39c25 64 69 118 129 118c31 0 49 -10 70 -24c18 -13 30 -21 46 -21c22 0 36 14 52 43l79 -38c-26 -67 -71 -117 -130 -117zM345 710
c196 0 313 -132 313 -363c0 -227 -117 -364 -313 -364c-195 0 -312 133 -312 364c0 226 117 363 312 363zM345 590c-92 0 -140 -68 -140 -243c0 -176 50 -244 140 -244c94 0 141 68 141 244c0 175 -48 243 -141 243z" />
    <glyph glyph-name="uni022C" unicode="&#x22c;" horiz-adv-x="691" 
d="M497 961h-305v109h305v-109zM403 756c-28 0 -47 8 -67 22c-18 14 -30 22 -47 22c-24 0 -37 -15 -53 -44l-79 39c25 64 69 118 129 118c31 0 49 -10 70 -24c18 -13 30 -21 46 -21c22 0 36 14 52 43l79 -38c-26 -67 -71 -117 -130 -117zM345 710c196 0 313 -132 313 -363
c0 -227 -117 -364 -313 -364c-195 0 -312 133 -312 364c0 226 117 363 312 363zM345 590c-92 0 -140 -68 -140 -243c0 -176 50 -244 140 -244c94 0 141 68 141 244c0 175 -48 243 -141 243z" />
    <glyph glyph-name="OE" unicode="&#x152;" horiz-adv-x="905" 
d="M635 295c-8 -67 -31 -129 -69 -177h303v-118h-445c-28 -11 -61 -17 -95 -17c-179 0 -296 133 -296 364c0 226 117 363 296 363c36 0 70 -6 99 -17h441l-17 -117h-282c35 -46 56 -103 64 -166h187v-115h-186zM335 103c84 0 131 68 131 244c0 175 -48 243 -131 243
c-82 0 -130 -68 -130 -243c0 -176 50 -244 130 -244z" />
    <glyph glyph-name="P" unicode="P" horiz-adv-x="600" 
d="M289 693c179 0 289 -74 289 -226c0 -161 -114 -236 -274 -236h-75v-231h-164v693h224zM290 349c74 0 119 31 119 118c0 74 -41 109 -122 109h-58v-227h61z" />
    <glyph glyph-name="uni1E54" unicode="&#x1e54;" horiz-adv-x="600" 
d="M440 838l-240 -87l-40 80l221 125zM289 693c179 0 289 -74 289 -226c0 -161 -114 -236 -274 -236h-75v-231h-164v693h224zM290 349c74 0 119 31 119 118c0 74 -41 109 -122 109h-58v-227h61z" />
    <glyph glyph-name="uni1E56" unicode="&#x1e56;" horiz-adv-x="600" 
d="M300 757c-55 0 -93 39 -93 90s38 90 93 90s94 -39 94 -90s-39 -90 -94 -90zM289 693c179 0 289 -74 289 -226c0 -161 -114 -236 -274 -236h-75v-231h-164v693h224zM290 349c74 0 119 31 119 118c0 74 -41 109 -122 109h-58v-227h61z" />
    <glyph glyph-name="uni01A4" unicode="&#x1a4;" horiz-adv-x="741" 
d="M431 693c179 0 289 -74 289 -226c0 -161 -115 -236 -275 -236h-75v-231h-164v576h-28c-30 0 -46 -15 -46 -42c0 -22 7 -42 17 -65l-101 -45c-23 34 -44 73 -44 120c0 92 71 149 183 149h244zM431 349c75 0 120 31 120 118c0 74 -42 109 -123 109h-58v-227h61z" />
    <glyph glyph-name="Thorn" unicode="&#xde;" horiz-adv-x="600" 
d="M289 585c179 0 289 -75 289 -229c0 -166 -114 -242 -274 -242h-75v-114h-164v693h164v-108h60zM290 233c74 0 119 31 119 123c0 77 -41 112 -122 112h-58v-235h61z" />
    <glyph glyph-name="Q" unicode="Q" horiz-adv-x="690" 
d="M495 45c90 0 149 -23 205 -63l-99 -129c-64 72 -136 133 -266 133c-185 0 -302 130 -302 361c0 226 117 363 312 363c196 0 313 -132 313 -363c0 -168 -78 -255 -163 -302zM205 347c0 -176 50 -244 140 -244c94 0 141 68 141 244c0 175 -48 243 -141 243
c-92 0 -140 -68 -140 -243z" />
    <glyph glyph-name="uni024A" unicode="&#x24a;" horiz-adv-x="673" 
d="M732 -82l54 -97c-32 -24 -76 -43 -141 -43c-121 0 -201 63 -201 191v67c-33 -32 -76 -53 -138 -53c-161 0 -273 128 -273 352c0 237 117 375 276 375c63 0 111 -24 147 -57l6 40h146v-735c0 -41 20 -61 54 -61c30 0 47 9 70 21zM339 100c41 0 76 14 105 41v408
c-26 24 -58 41 -102 41c-87 0 -137 -69 -137 -255c0 -176 53 -235 134 -235z" />
    <glyph glyph-name="R" unicode="R" horiz-adv-x="617" 
d="M435 0l-142 265h-64v-265h-164v693h227c188 0 285 -67 285 -211c0 -91 -43 -146 -133 -187l176 -295h-185zM229 578v-200h69c72 0 110 31 110 104c0 67 -39 96 -120 96h-59z" />
    <glyph glyph-name="Racute" unicode="&#x154;" horiz-adv-x="617" 
d="M441 838l-240 -87l-40 80l221 125zM435 0l-142 265h-64v-265h-164v693h227c188 0 285 -67 285 -211c0 -91 -43 -146 -133 -187l176 -295h-185zM229 578v-200h69c72 0 110 31 110 104c0 67 -39 96 -120 96h-59z" />
    <glyph glyph-name="Rcaron" unicode="&#x158;" horiz-adv-x="617" 
d="M349 750h-96l-142 129l57 65l133 -84l133 84l56 -65zM435 0l-142 265h-64v-265h-164v693h227c188 0 285 -67 285 -211c0 -91 -43 -146 -133 -187l176 -295h-185zM229 578v-200h69c72 0 110 31 110 104c0 67 -39 96 -120 96h-59z" />
    <glyph glyph-name="uni0156" unicode="&#x156;" horiz-adv-x="617" 
d="M444 295l176 -295h-185l-142 265h-64v-265h-164v693h227c188 0 285 -67 285 -211c0 -91 -43 -146 -133 -187zM229 578v-200h69c72 0 110 31 110 104c0 67 -39 96 -120 96h-59zM312 -68c46 0 79 -33 79 -77c0 -26 -8 -46 -27 -84l-46 -96h-79l27 115c-19 15 -33 36 -33 65
c0 42 33 77 79 77z" />
    <glyph glyph-name="uni0210" unicode="&#x210;" horiz-adv-x="617" 
d="M267 789l-81 -38l-122 182l106 53zM434 789l-83 -33l-113 180l108 50zM435 0l-142 265h-64v-265h-164v693h227c188 0 285 -67 285 -211c0 -91 -43 -146 -133 -187l176 -295h-185zM229 578v-200h69c72 0 110 31 110 104c0 67 -39 96 -120 96h-59z" />
    <glyph glyph-name="uni1E5A" unicode="&#x1e5a;" horiz-adv-x="617" 
d="M444 295l176 -295h-185l-142 265h-64v-265h-164v693h227c188 0 285 -67 285 -211c0 -91 -43 -146 -133 -187zM229 578v-200h69c72 0 110 31 110 104c0 67 -39 96 -120 96h-59zM311 -60c54 0 93 -39 93 -90s-39 -89 -93 -89c-56 0 -94 38 -94 89s38 90 94 90z" />
    <glyph glyph-name="uni0212" unicode="&#x212;" horiz-adv-x="617" 
d="M300 841c-46 0 -73 -29 -85 -77l-87 15c8 95 67 172 172 172s165 -77 173 -172l-87 -15c-13 48 -40 77 -86 77zM435 0l-142 265h-64v-265h-164v693h227c188 0 285 -67 285 -211c0 -91 -43 -146 -133 -187l176 -295h-185zM229 578v-200h69c72 0 110 31 110 104
c0 67 -39 96 -120 96h-59z" />
    <glyph glyph-name="uni024C" unicode="&#x24c;" horiz-adv-x="631" 
d="M634 0h-185l-142 265h-64v-265h-164v265h-65v113h65v315h227c189 0 285 -67 285 -211c0 -91 -43 -146 -133 -187zM243 378h70c71 0 109 31 109 104c0 67 -39 96 -120 96h-59v-200z" />
    <glyph glyph-name="uni2C64" unicode="&#x2c64;" horiz-adv-x="617" 
d="M229 -42c0 -41 20 -61 54 -61c30 0 46 9 70 21l53 -97c-31 -24 -76 -43 -141 -43c-120 0 -200 63 -200 191v724h227c188 0 285 -67 285 -211c0 -91 -43 -146 -133 -187l176 -295h-185l-142 265h-64v-307zM288 578h-59v-200h69c72 0 110 31 110 104c0 67 -39 96 -120 96z
" />
    <glyph glyph-name="uni2C64.ss01" horiz-adv-x="440" 
d="M229 -42c0 -41 20 -61 54 -61c30 0 46 9 70 21l53 -97c-31 -24 -76 -43 -141 -43c-120 0 -200 63 -200 191v724h143l14 -99c25 71 79 114 157 114c32 0 49 -3 67 -9l-27 -156c-15 4 -32 8 -59 8c-75 0 -112 -48 -131 -128v-465z" />
    <glyph glyph-name="S" unicode="S" horiz-adv-x="572" 
d="M288 710c106 0 179 -31 240 -89l-76 -89c-48 39 -96 58 -152 58c-57 0 -93 -24 -93 -68s26 -62 134 -96c131 -42 206 -96 206 -224c0 -129 -102 -219 -275 -219c-120 0 -206 44 -263 99l83 91c51 -43 106 -68 175 -68c68 0 110 32 110 85c0 51 -26 74 -127 105
c-155 48 -212 112 -212 215c0 122 106 200 250 200z" />
    <glyph glyph-name="Sacute" unicode="&#x15a;" horiz-adv-x="572" 
d="M376 956l59 -118l-240 -87l-40 80zM288 710c106 0 179 -31 240 -89l-76 -89c-48 39 -96 58 -152 58c-57 0 -93 -24 -93 -68s26 -62 134 -96c131 -42 206 -96 206 -224c0 -129 -102 -219 -275 -219c-120 0 -206 44 -263 99l83 91c51 -43 106 -68 175 -68
c68 0 110 32 110 85c0 51 -26 74 -127 105c-155 48 -212 112 -212 215c0 122 106 200 250 200z" />
    <glyph glyph-name="Sacute.loclPLK" horiz-adv-x="572" 
d="M320 965l117 -67l-143 -157l-71 41zM288 710c106 0 179 -31 240 -89l-76 -89c-48 39 -96 58 -152 58c-57 0 -93 -24 -93 -68s26 -62 134 -96c131 -42 206 -96 206 -224c0 -129 -102 -219 -275 -219c-120 0 -206 44 -263 99l83 91c51 -43 106 -68 175 -68
c68 0 110 32 110 85c0 51 -26 74 -127 105c-155 48 -212 112 -212 215c0 122 106 200 250 200z" />
    <glyph glyph-name="uniA78B" unicode="&#xa78b;" horiz-adv-x="250" 
d="M67 334l-19 359h154l-19 -359h-116z" />
    <glyph glyph-name="Scaron" unicode="&#x160;" horiz-adv-x="572" 
d="M429 944l56 -65l-141 -129h-96l-142 129l57 65l133 -84zM288 710c106 0 179 -31 240 -89l-76 -89c-48 39 -96 58 -152 58c-57 0 -93 -24 -93 -68s26 -62 134 -96c131 -42 206 -96 206 -224c0 -129 -102 -219 -275 -219c-120 0 -206 44 -263 99l83 91
c51 -43 106 -68 175 -68c68 0 110 32 110 85c0 51 -26 74 -127 105c-155 48 -212 112 -212 215c0 122 106 200 250 200z" />
    <glyph glyph-name="Scedilla" unicode="&#x15e;" horiz-adv-x="572" 
d="M547 202c0 -115 -81 -199 -222 -216v-34c72 -8 104 -45 104 -99c0 -68 -58 -115 -149 -115c-47 0 -87 13 -112 30l36 73c20 -10 39 -17 64 -17c28 0 47 8 47 30c0 24 -28 34 -92 34l11 96c-100 9 -174 49 -225 98l83 91c51 -43 106 -68 175 -68c68 0 110 32 110 85
c0 51 -26 74 -127 105c-155 48 -212 112 -212 215c0 122 106 200 250 200c106 0 179 -31 240 -89l-76 -89c-48 39 -96 58 -152 58c-57 0 -93 -24 -93 -68s26 -62 134 -96c131 -42 206 -96 206 -224z" />
    <glyph glyph-name="Scircumflex" unicode="&#x15c;" horiz-adv-x="572" 
d="M162 755l-57 65l142 129h96l141 -129l-56 -65l-133 84zM288 710c106 0 179 -31 240 -89l-76 -89c-48 39 -96 58 -152 58c-57 0 -93 -24 -93 -68s26 -62 134 -96c131 -42 206 -96 206 -224c0 -129 -102 -219 -275 -219c-120 0 -206 44 -263 99l83 91
c51 -43 106 -68 175 -68c68 0 110 32 110 85c0 51 -26 74 -127 105c-155 48 -212 112 -212 215c0 122 106 200 250 200z" />
    <glyph glyph-name="uni0218" unicode="&#x218;" horiz-adv-x="572" 
d="M288 710c106 0 179 -31 240 -89l-76 -89c-48 39 -96 58 -152 58c-57 0 -93 -24 -93 -68s26 -62 134 -96c131 -42 206 -96 206 -224c0 -129 -102 -219 -275 -219c-120 0 -206 44 -263 99l83 91c51 -43 106 -68 175 -68c68 0 110 32 110 85c0 51 -26 74 -127 105
c-155 48 -212 112 -212 215c0 122 106 200 250 200zM284 -68c46 0 79 -33 79 -77c0 -26 -8 -46 -27 -84l-46 -96h-79l27 115c-19 15 -33 36 -33 65c0 42 33 77 79 77z" />
    <glyph glyph-name="uni1E60" unicode="&#x1e60;" horiz-adv-x="572" 
d="M295 937c55 0 94 -39 94 -90s-39 -90 -94 -90s-93 39 -93 90s38 90 93 90zM288 710c106 0 179 -31 240 -89l-76 -89c-48 39 -96 58 -152 58c-57 0 -93 -24 -93 -68s26 -62 134 -96c131 -42 206 -96 206 -224c0 -129 -102 -219 -275 -219c-120 0 -206 44 -263 99l83 91
c51 -43 106 -68 175 -68c68 0 110 32 110 85c0 51 -26 74 -127 105c-155 48 -212 112 -212 215c0 122 106 200 250 200z" />
    <glyph glyph-name="uni1E62" unicode="&#x1e62;" horiz-adv-x="572" 
d="M288 710c106 0 179 -31 240 -89l-76 -89c-48 39 -96 58 -152 58c-57 0 -93 -24 -93 -68s26 -62 134 -96c131 -42 206 -96 206 -224c0 -129 -102 -219 -275 -219c-120 0 -206 44 -263 99l83 91c51 -43 106 -68 175 -68c68 0 110 32 110 85c0 51 -26 74 -127 105
c-155 48 -212 112 -212 215c0 122 106 200 250 200zM284 -239c-56 0 -94 38 -94 89s38 90 94 90c54 0 93 -39 93 -90s-39 -89 -93 -89z" />
    <glyph glyph-name="uni1E9E" unicode="&#x1e9e;" horiz-adv-x="669" 
d="M309 710c119 0 205 -32 287 -71v-75l-147 -171c115 -18 194 -74 194 -197c0 -141 -109 -213 -241 -213c-55 0 -100 11 -131 27l48 108c16 -7 35 -12 62 -12c52 0 91 27 91 93c0 71 -50 107 -165 115v87l138 166c-39 14 -80 23 -126 23c-61 0 -90 -31 -90 -101v-489h-164
v485c0 140 83 225 244 225z" />
    <glyph glyph-name="uni018F" unicode="&#x18f;" horiz-adv-x="640" 
d="M309 710c187 0 297 -120 297 -358c0 -245 -115 -369 -294 -369c-199 0 -289 138 -289 355c0 22 2 47 6 67h411c-5 130 -57 185 -146 185c-69 0 -116 -26 -158 -57l-74 89c68 58 145 88 247 88zM311 103c78 0 124 50 130 189h-260c1 -138 52 -189 130 -189z" />
    <glyph glyph-name="T" unicode="T" horiz-adv-x="540" 
d="M539 693l-16 -126h-171v-567h-164v567h-179v126h530z" />
    <glyph glyph-name="Tbar" unicode="&#x166;" horiz-adv-x="540" 
d="M523 566h-171v-177h115v-92h-115v-298h-164v298h-115v92h115v177h-179v127h530z" />
    <glyph glyph-name="Tcaron" unicode="&#x164;" horiz-adv-x="540" 
d="M404 944l56 -65l-141 -129h-96l-142 129l57 65l133 -84zM539 693l-16 -126h-171v-567h-164v567h-179v126h530z" />
    <glyph glyph-name="uni0162" unicode="&#x162;" horiz-adv-x="540" 
d="M352 -48c71 -8 105 -45 105 -99c0 -68 -59 -115 -150 -115c-46 0 -87 14 -111 30l36 73c20 -10 38 -17 61 -17c30 0 50 8 50 31s-28 33 -92 33l13 112h-76v567h-179v126h530l-16 -126h-171v-615z" />
    <glyph glyph-name="uni1E70" unicode="&#x1e70;" horiz-adv-x="540" 
d="M539 693l-16 -126h-171v-567h-164v567h-179v126h530zM137 -265l-56 65l141 137h97l141 -137l-56 -65l-133 92z" />
    <glyph glyph-name="uni021A" unicode="&#x21a;" horiz-adv-x="540" 
d="M539 693l-16 -126h-171v-567h-164v567h-179v126h530zM271 -68c46 0 79 -33 79 -77c0 -26 -8 -46 -27 -84l-46 -96h-79l27 115c-19 15 -33 36 -33 65c0 42 33 77 79 77z" />
    <glyph glyph-name="uni023E" unicode="&#x23e;" horiz-adv-x="540" 
d="M523 573h-88l-93 -200v-373h-144v64l-64 -138l-50 23l114 245v379h-189v120h421l30 65l50 -24l-19 -41h48zM342 504l32 69h-32v-69z" />
    <glyph glyph-name="uni1E6A" unicode="&#x1e6a;" horiz-adv-x="540" 
d="M270 937c55 0 94 -39 94 -90s-39 -90 -94 -90s-93 39 -93 90s38 90 93 90zM539 693l-16 -126h-171v-567h-164v567h-179v126h530z" />
    <glyph glyph-name="uni1E6C" unicode="&#x1e6c;" horiz-adv-x="540" 
d="M539 693l-16 -126h-171v-567h-164v567h-179v126h530zM271 -239c-56 0 -94 38 -94 89s38 90 94 90c54 0 93 -39 93 -90s-39 -89 -93 -89z" />
    <glyph glyph-name="uni01AC" unicode="&#x1ac;" horiz-adv-x="595" 
d="M594 693l-17 -126h-170v-567h-164v567h-64c-30 0 -46 -15 -46 -40c0 -22 7 -38 16 -57l-108 -46c-19 32 -37 74 -37 119c0 94 72 150 190 150h400z" />
    <glyph glyph-name="uni1E6E" unicode="&#x1e6e;" horiz-adv-x="540" 
d="M539 693l-16 -126h-171v-567h-164v567h-179v126h530zM422 -191h-305v109h305v-109z" />
    <glyph glyph-name="uni01BC" unicode="&#x1bc;" horiz-adv-x="543" 
d="M478 693l-17 -113h-251v-150c37 18 72 24 106 24c110 0 194 -80 194 -226c0 -148 -104 -245 -269 -245c-101 0 -176 43 -228 102l88 82c35 -41 80 -65 134 -65c71 0 113 42 113 126c0 88 -40 118 -95 118c-29 0 -53 -7 -87 -24h-108v371h420z" />
    <glyph glyph-name="uni0184" unicode="&#x184;" horiz-adv-x="615" 
d="M324 457c173 0 276 -72 276 -222c0 -162 -114 -235 -272 -235h-242v492l-75 50c40 41 75 94 101 151h138v-236h74zM314 119c72 0 114 33 114 114c0 74 -37 110 -118 110h-60v-224h64z" />
    <glyph glyph-name="uni01A7" unicode="&#x1a7;" horiz-adv-x="563" 
d="M292 710c146 0 245 -77 245 -196c0 -106 -65 -165 -215 -212c-101 -31 -127 -63 -127 -112c0 -55 40 -84 103 -84c65 0 123 26 173 67l82 -91c-59 -55 -147 -99 -266 -99c-161 0 -263 90 -263 216c0 122 76 178 206 219c108 35 137 58 137 105c0 45 -34 67 -87 67
c-61 0 -109 -19 -157 -57l-77 88c66 58 145 89 246 89z" />
    <glyph glyph-name="uni01AE" unicode="&#x1ae;" horiz-adv-x="542" 
d="M406 -103c30 0 47 9 70 21l54 -97c-32 -24 -76 -43 -141 -43c-121 0 -201 63 -201 191v598h-179v126h530l-16 -126h-171v-609c0 -41 20 -61 54 -61z" />
    <glyph glyph-name="U" unicode="U" horiz-adv-x="651" 
d="M596 693v-463c0 -140 -90 -247 -271 -247s-270 101 -270 247v463h164v-456c0 -89 32 -132 106 -132c75 0 107 43 107 132v456h164z" />
    <glyph glyph-name="Uacute" unicode="&#xda;" horiz-adv-x="651" 
d="M406 956l59 -118l-240 -87l-40 80zM596 693v-463c0 -140 -90 -247 -271 -247s-270 101 -270 247v463h164v-456c0 -89 32 -132 106 -132c75 0 107 43 107 132v456h164z" />
    <glyph glyph-name="Uacute.loclHUN" horiz-adv-x="651" 
d="M350 965l117 -67l-143 -157l-71 41zM596 693v-463c0 -140 -90 -247 -271 -247s-270 101 -270 247v463h164v-456c0 -89 32 -132 106 -132c75 0 107 43 107 132v456h164z" />
    <glyph glyph-name="uni0244" unicode="&#x244;" horiz-adv-x="681" 
d="M668 592v-92h-56v-270c0 -140 -91 -247 -272 -247s-270 101 -270 247v270h-57v92h57v101h164v-101h213v101h165v-101h56zM447 237v263h-213v-263c0 -89 32 -132 106 -132c75 0 107 43 107 132z" />
    <glyph glyph-name="Ubreve" unicode="&#x16c;" horiz-adv-x="651" 
d="M325 751c-105 0 -164 77 -172 162l87 15c12 -38 39 -68 85 -68s73 30 86 68l87 -15c-8 -85 -68 -162 -173 -162zM596 693v-463c0 -140 -90 -247 -271 -247s-270 101 -270 247v463h164v-456c0 -89 32 -132 106 -132c75 0 107 43 107 132v456h164z" />
    <glyph glyph-name="uni01D3" unicode="&#x1d3;" horiz-adv-x="651" 
d="M459 944l56 -65l-141 -129h-96l-142 129l57 65l133 -84zM596 693v-463c0 -140 -90 -247 -271 -247s-270 101 -270 247v463h164v-456c0 -89 32 -132 106 -132c75 0 107 43 107 132v456h164z" />
    <glyph glyph-name="Ucircumflex" unicode="&#xdb;" horiz-adv-x="651" 
d="M192 755l-57 65l142 129h96l141 -129l-56 -65l-133 84zM596 693v-463c0 -140 -90 -247 -271 -247s-270 101 -270 247v463h164v-456c0 -89 32 -132 106 -132c75 0 107 43 107 132v456h164z" />
    <glyph glyph-name="uni0214" unicode="&#x214;" horiz-adv-x="651" 
d="M195 986l97 -197l-81 -38l-122 182zM371 986l88 -197l-83 -33l-113 180zM596 693v-463c0 -140 -90 -247 -271 -247s-270 101 -270 247v463h164v-456c0 -89 32 -132 106 -132c75 0 107 43 107 132v456h164z" />
    <glyph glyph-name="Udieresis" unicode="&#xdc;" horiz-adv-x="651" 
d="M208 925c46 0 81 -35 81 -79s-35 -79 -81 -79c-45 0 -81 35 -81 79s36 79 81 79zM439 925c47 0 81 -35 81 -79s-34 -79 -81 -79c-44 0 -80 35 -80 79s36 79 80 79zM596 693v-463c0 -140 -90 -247 -271 -247s-270 101 -270 247v463h164v-456c0 -89 32 -132 106 -132
c75 0 107 43 107 132v456h164z" />
    <glyph glyph-name="uni01D7" unicode="&#x1d7;" horiz-adv-x="651" 
d="M396 1097l86 -84l-158 -141l-59 54zM203 906c44 0 81 -35 81 -79s-37 -79 -81 -79c-46 0 -81 35 -81 79s35 79 81 79zM447 906c45 0 81 -35 81 -79s-36 -79 -81 -79c-46 0 -81 35 -81 79s35 79 81 79zM596 693v-463c0 -140 -90 -247 -271 -247s-270 101 -270 247v463h164
v-456c0 -89 32 -132 106 -132c75 0 107 43 107 132v456h164z" />
    <glyph glyph-name="uni01D9" unicode="&#x1d9;" horiz-adv-x="651" 
d="M457 1099l56 -64l-141 -130h-97l-141 130l57 64l132 -84zM203 906c45 0 81 -35 81 -79s-36 -79 -81 -79c-46 0 -81 35 -81 79s35 79 81 79zM447 906c45 0 81 -35 81 -79s-36 -79 -81 -79c-46 0 -80 35 -80 79s34 79 80 79zM596 693v-463c0 -140 -90 -247 -271 -247
s-270 101 -270 247v463h164v-456c0 -89 32 -132 106 -132c75 0 107 43 107 132v456h164z" />
    <glyph glyph-name="uni01DB" unicode="&#x1db;" horiz-adv-x="651" 
d="M256 1097l132 -171l-60 -54l-158 141zM203 906c46 0 81 -35 81 -79s-35 -79 -81 -79c-45 0 -81 35 -81 79s36 79 81 79zM447 906c46 0 81 -35 81 -79s-35 -79 -81 -79c-45 0 -81 35 -81 79s36 79 81 79zM596 693v-463c0 -140 -90 -247 -271 -247s-270 101 -270 247v463
h164v-456c0 -89 32 -132 106 -132c75 0 107 43 107 132v456h164z" />
    <glyph glyph-name="uni01D5" unicode="&#x1d5;" horiz-adv-x="651" 
d="M479 960h-305v109h305v-109zM209 904c45 0 80 -35 80 -79c0 -45 -35 -80 -80 -80s-81 35 -81 80c0 44 36 79 81 79zM440 904c46 0 81 -35 81 -79c0 -45 -35 -80 -81 -80c-44 0 -80 35 -80 80c0 44 36 79 80 79zM596 693v-463c0 -140 -90 -247 -271 -247
s-270 101 -270 247v463h164v-456c0 -89 32 -132 106 -132c75 0 107 43 107 132v456h164z" />
    <glyph glyph-name="uni1EE4" unicode="&#x1ee4;" horiz-adv-x="651" 
d="M596 693v-463c0 -140 -90 -247 -271 -247s-270 101 -270 247v463h164v-456c0 -89 32 -132 106 -132c75 0 107 43 107 132v456h164zM326 -239c-56 0 -94 38 -94 89s38 90 94 90c54 0 93 -39 93 -90s-39 -89 -93 -89z" />
    <glyph glyph-name="Ugrave" unicode="&#xd9;" horiz-adv-x="651" 
d="M241 956l221 -125l-40 -80l-240 87zM596 693v-463c0 -140 -90 -247 -271 -247s-270 101 -270 247v463h164v-456c0 -89 32 -132 106 -132c75 0 107 43 107 132v456h164z" />
    <glyph glyph-name="uni1EE6" unicode="&#x1ee6;" horiz-adv-x="651" 
d="M278 764v89c49 3 71 12 71 38c0 21 -16 31 -40 31c-23 0 -40 -5 -60 -13l-26 66c28 16 62 26 109 26c81 0 124 -43 124 -102c0 -52 -30 -83 -84 -93v-42h-94zM596 693v-463c0 -140 -90 -247 -271 -247s-270 101 -270 247v463h164v-456c0 -89 32 -132 106 -132
c75 0 107 43 107 132v456h164z" />
    <glyph glyph-name="Uhorn" unicode="&#x1af;" horiz-adv-x="725" 
d="M726 773c10 -19 19 -46 19 -88c0 -84 -56 -126 -149 -127v-328c0 -140 -90 -247 -271 -247s-270 101 -270 247v463h164v-456c0 -89 32 -132 106 -132c75 0 107 43 107 132v456h164v-58c30 6 41 23 41 55c0 30 -5 48 -13 68z" />
    <glyph glyph-name="uni1EE8" unicode="&#x1ee8;" horiz-adv-x="725" 
d="M465 838l-239 -87l-41 80l222 125zM726 773c10 -19 19 -46 19 -88c0 -84 -56 -126 -149 -127v-328c0 -140 -90 -247 -271 -247s-270 101 -270 247v463h164v-456c0 -89 32 -132 106 -132c75 0 107 43 107 132v456h164v-58c30 6 41 23 41 55c0 30 -5 48 -13 68z" />
    <glyph glyph-name="uni1EF0" unicode="&#x1ef0;" horiz-adv-x="725" 
d="M726 773c10 -19 19 -46 19 -88c0 -84 -56 -126 -149 -127v-328c0 -140 -90 -247 -271 -247s-270 101 -270 247v463h164v-456c0 -89 32 -132 106 -132c75 0 107 43 107 132v456h164v-58c30 6 41 23 41 55c0 30 -5 48 -13 68zM325 -60c55 0 94 -39 94 -90s-39 -89 -94 -89
s-93 38 -93 89s38 90 93 90z" />
    <glyph glyph-name="uni1EEA" unicode="&#x1eea;" horiz-adv-x="725" 
d="M462 831l-41 -80l-239 87l59 118zM726 773c10 -19 19 -46 19 -88c0 -84 -56 -126 -149 -127v-328c0 -140 -90 -247 -271 -247s-270 101 -270 247v463h164v-456c0 -89 32 -132 106 -132c75 0 107 43 107 132v456h164v-58c30 6 41 23 41 55c0 30 -5 48 -13 68z" />
    <glyph glyph-name="uni1EEC" unicode="&#x1eec;" horiz-adv-x="725" 
d="M309 922c-24 0 -40 -5 -60 -13l-26 66c28 16 62 26 109 26c81 0 124 -43 124 -102c0 -52 -30 -83 -84 -93v-42h-94v89c49 3 71 12 71 38c0 21 -16 31 -40 31zM726 773c10 -19 19 -46 19 -88c0 -84 -56 -126 -149 -127v-328c0 -140 -90 -247 -271 -247s-270 101 -270 247
v463h164v-456c0 -89 32 -132 106 -132c75 0 107 43 107 132v456h164v-58c30 6 41 23 41 55c0 30 -5 48 -13 68z" />
    <glyph glyph-name="uni1EEE" unicode="&#x1eee;" horiz-adv-x="725" 
d="M269 806c-24 0 -37 -16 -53 -44l-79 38c25 64 69 118 129 118c31 0 50 -10 70 -24c18 -13 30 -21 46 -21c23 0 36 15 53 44l79 -39c-26 -67 -71 -117 -131 -117c-28 0 -46 8 -66 23c-19 13 -31 22 -48 22zM726 773c10 -19 19 -46 19 -88c0 -84 -56 -126 -149 -127v-328
c0 -140 -90 -247 -271 -247s-270 101 -270 247v463h164v-456c0 -89 32 -132 106 -132c75 0 107 43 107 132v456h164v-58c30 6 41 23 41 55c0 30 -5 48 -13 68z" />
    <glyph glyph-name="Uhungarumlaut" unicode="&#x170;" horiz-adv-x="651" 
d="M288 956l100 -57l-126 -159l-70 38zM459 947l97 -62l-135 -152l-67 42zM596 693v-463c0 -140 -90 -247 -271 -247s-270 101 -270 247v463h164v-456c0 -89 32 -132 106 -132c75 0 107 43 107 132v456h164z" />
    <glyph glyph-name="uni0216" unicode="&#x216;" horiz-adv-x="651" 
d="M325 951c105 0 165 -77 173 -172l-87 -15c-13 48 -40 77 -86 77s-73 -29 -85 -77l-87 15c8 95 67 172 172 172zM596 693v-463c0 -140 -90 -247 -271 -247s-270 101 -270 247v463h164v-456c0 -89 32 -132 106 -132c75 0 107 43 107 132v456h164z" />
    <glyph glyph-name="Umacron" unicode="&#x16a;" horiz-adv-x="651" 
d="M477 781h-305v110h305v-110zM596 693v-463c0 -140 -90 -247 -271 -247s-270 101 -270 247v463h164v-456c0 -89 32 -132 106 -132c75 0 107 43 107 132v456h164z" />
    <glyph glyph-name="Uogonek" unicode="&#x172;" horiz-adv-x="651" 
d="M432 693h164v-463c0 -108 -53 -196 -160 -231c-96 -36 -116 -73 -116 -101c0 -30 17 -46 53 -46c20 0 38 3 61 8l-11 -98c-21 -5 -43 -8 -70 -8c-85 0 -147 45 -147 117c0 52 33 89 84 113c-158 13 -235 110 -235 246v463h164v-456c0 -89 32 -132 106 -132
c75 0 107 43 107 132v456z" />
    <glyph glyph-name="uni01B1" unicode="&#x1b1;" horiz-adv-x="691" 
d="M345 -17c-197 0 -312 137 -312 319c0 138 55 219 132 274h-110v117h235v-111c-56 -63 -85 -132 -85 -280c0 -131 47 -199 140 -199c92 0 141 68 141 199c0 148 -32 217 -85 280v111h236v-117h-111c78 -52 132 -134 132 -274c0 -180 -118 -319 -313 -319z" />
    <glyph glyph-name="Uring" unicode="&#x16e;" horiz-adv-x="651" 
d="M325 993c86 0 139 -60 139 -131s-53 -131 -139 -131s-139 60 -139 131s53 131 139 131zM325 912c-27 0 -45 -17 -45 -50s18 -50 45 -50c26 0 45 17 45 50s-18 50 -45 50zM596 693v-463c0 -140 -90 -247 -271 -247s-270 101 -270 247v463h164v-456c0 -89 32 -132 106 -132
c75 0 107 43 107 132v456h164z" />
    <glyph glyph-name="Utilde" unicode="&#x168;" horiz-adv-x="651" 
d="M383 761c-28 0 -47 8 -67 23c-18 13 -30 22 -47 22c-24 0 -37 -16 -53 -44l-79 38c25 64 69 118 129 118c31 0 49 -10 70 -24c18 -13 30 -21 46 -21c22 0 36 15 52 44l79 -39c-26 -67 -71 -117 -130 -117zM596 693v-463c0 -140 -90 -247 -271 -247s-270 101 -270 247v463
h164v-456c0 -89 32 -132 106 -132c75 0 107 43 107 132v456h164z" />
    <glyph glyph-name="uni1E78" unicode="&#x1e78;" horiz-adv-x="651" 
d="M406 1136l59 -118l-240 -87l-40 80zM383 756c-28 0 -47 8 -67 22c-18 14 -30 22 -47 22c-24 0 -37 -15 -53 -44l-79 39c25 64 69 118 129 118c31 0 49 -10 70 -24c18 -13 30 -21 46 -21c22 0 36 14 52 43l79 -38c-26 -67 -71 -117 -130 -117zM596 693v-463
c0 -140 -90 -247 -271 -247s-270 101 -270 247v463h164v-456c0 -89 32 -132 106 -132c75 0 107 43 107 132v456h164z" />
    <glyph glyph-name="V" unicode="V" horiz-adv-x="570" 
d="M584 693l-193 -693h-204l-200 693h173l132 -565l124 565h168z" />
    <glyph glyph-name="uni0194" unicode="&#x194;" horiz-adv-x="570" 
d="M583 693l-211 -601c44 -73 66 -127 66 -189c0 -74 -43 -125 -151 -125c-105 0 -151 50 -151 124c0 56 21 107 68 190l-217 601h173l128 -494l127 494h168zM316 -87c0 27 -12 55 -29 93c-17 -37 -29 -68 -29 -93c0 -21 11 -32 29 -32c19 0 29 12 29 32z" />
    <glyph glyph-name="uni01B2" unicode="&#x1b2;" horiz-adv-x="651" 
d="M444 710c96 0 152 -51 152 -166v-252c0 -194 -116 -309 -291 -309c-158 0 -250 98 -250 231v479h164v-478c0 -69 31 -110 90 -110c74 0 123 54 123 185v262c0 28 -9 39 -31 39c-10 0 -19 -2 -27 -5l-26 107c27 11 56 17 96 17z" />
    <glyph glyph-name="uni0245" unicode="&#x245;" horiz-adv-x="590" 
d="M395 693l209 -693h-174l-136 574l-137 -574h-170l209 693h199z" />
    <glyph glyph-name="W" unicode="W" horiz-adv-x="847" 
d="M837 693l-116 -693h-213l-86 529l-91 -529h-208l-114 693h164l69 -569l96 569h172l90 -569l81 569h156z" />
    <glyph glyph-name="Wacute" unicode="&#x1e82;" horiz-adv-x="847" 
d="M506 956l59 -118l-240 -87l-40 80zM837 693l-116 -693h-213l-86 529l-91 -529h-208l-114 693h164l69 -569l96 569h172l90 -569l81 569h156z" />
    <glyph glyph-name="Wcircumflex" unicode="&#x174;" horiz-adv-x="847" 
d="M292 755l-57 65l142 129h96l141 -129l-56 -65l-133 84zM837 693l-116 -693h-213l-86 529l-91 -529h-208l-114 693h164l69 -569l96 569h172l90 -569l81 569h156z" />
    <glyph glyph-name="Wdieresis" unicode="&#x1e84;" horiz-adv-x="847" 
d="M307 925c46 0 81 -35 81 -79s-35 -79 -81 -79c-45 0 -81 35 -81 79s36 79 81 79zM538 925c47 0 81 -35 81 -79s-34 -79 -81 -79c-44 0 -80 35 -80 79s36 79 80 79zM837 693l-116 -693h-213l-86 529l-91 -529h-208l-114 693h164l69 -569l96 569h172l90 -569l81 569h156z
" />
    <glyph glyph-name="Wgrave" unicode="&#x1e80;" horiz-adv-x="847" 
d="M340 956l221 -125l-40 -80l-240 87zM837 693l-116 -693h-213l-86 529l-91 -529h-208l-114 693h164l69 -569l96 569h172l90 -569l81 569h156z" />
    <glyph glyph-name="uni2C72" unicode="&#x2c72;" horiz-adv-x="909" 
d="M9 693l114 -693h208l91 529l86 -529h209l79 537c6 42 21 58 53 58c25 0 38 -7 53 -16l46 93c-32 23 -68 38 -123 38c-94 0 -157 -45 -171 -172l-54 -414l-90 569h-172l-96 -569l-69 569h-164z" />
    <glyph glyph-name="uni01F7" unicode="&#x1f7;" horiz-adv-x="600" 
d="M387 710c104 0 191 -74 191 -193c0 -164 -123 -231 -274 -287l-75 -28v-202h-164v693h164v-43c39 39 93 60 158 60zM270 334c93 41 139 96 139 174c0 56 -31 84 -80 84c-38 0 -72 -14 -100 -39v-236z" />
    <glyph glyph-name="X" unicode="X" horiz-adv-x="581" 
d="M385 374l200 -374h-179l-119 264l-117 -264h-174l194 368l-179 325h178l100 -222l105 222h174z" />
    <glyph glyph-name="Y" unicode="Y" horiz-adv-x="594" 
d="M601 693l-222 -433v-260h-164v259l-222 434h179l128 -305l128 305h173z" />
    <glyph glyph-name="Yacute" unicode="&#xdd;" horiz-adv-x="594" 
d="M378 956l59 -118l-240 -87l-40 80zM601 693l-222 -433v-260h-164v259l-222 434h179l128 -305l128 305h173z" />
    <glyph glyph-name="Ycircumflex" unicode="&#x176;" horiz-adv-x="594" 
d="M164 755l-57 65l142 129h96l141 -129l-56 -65l-133 84zM601 693l-222 -433v-260h-164v259l-222 434h179l128 -305l128 305h173z" />
    <glyph glyph-name="Ydieresis" unicode="&#x178;" horiz-adv-x="594" 
d="M179 925c46 0 81 -35 81 -79s-35 -79 -81 -79c-45 0 -81 35 -81 79s36 79 81 79zM410 925c47 0 81 -35 81 -79s-34 -79 -81 -79c-44 0 -80 35 -80 79s36 79 80 79zM601 693l-222 -433v-260h-164v259l-222 434h179l128 -305l128 305h173z" />
    <glyph glyph-name="uni1EF4" unicode="&#x1ef4;" horiz-adv-x="594" 
d="M601 693l-222 -433v-260h-164v259l-222 434h179l128 -305l128 305h173zM297 -239c-56 0 -94 38 -94 89s38 90 94 90c54 0 93 -39 93 -90s-39 -89 -93 -89z" />
    <glyph glyph-name="Ygrave" unicode="&#x1ef2;" horiz-adv-x="594" 
d="M212 956l221 -125l-40 -80l-240 87zM601 693l-222 -433v-260h-164v259l-222 434h179l128 -305l128 305h173z" />
    <glyph glyph-name="uni01B3" unicode="&#x1b3;" horiz-adv-x="633" 
d="M215 0v259l-222 434h179l128 -305l70 178c38 104 88 144 182 144c51 0 88 -15 120 -37l-45 -94c-14 8 -32 16 -54 16c-31 0 -47 -13 -66 -55l-128 -280v-260h-164z" />
    <glyph glyph-name="uni1EF6" unicode="&#x1ef6;" horiz-adv-x="594" 
d="M249 764v89c49 3 71 12 71 38c0 21 -16 31 -40 31c-23 0 -40 -5 -60 -13l-26 66c28 16 62 26 109 26c81 0 124 -43 124 -102c0 -52 -30 -83 -84 -93v-42h-94zM601 693l-222 -433v-260h-164v259l-222 434h179l128 -305l128 305h173z" />
    <glyph glyph-name="uni0232" unicode="&#x232;" horiz-adv-x="594" 
d="M449 781h-305v110h305v-110zM601 693l-222 -433v-260h-164v259l-222 434h179l128 -305l128 305h173z" />
    <glyph glyph-name="uni01A6" unicode="&#x1a6;" horiz-adv-x="617" 
d="M435 -115l-142 265h-64v-150h-164v693h164v-114h63c188 0 285 -67 285 -211c0 -92 -43 -146 -133 -188l176 -295h-185zM229 463v-199h69c72 0 110 31 110 104c0 66 -39 95 -120 95h-59z" />
    <glyph glyph-name="uni024E" unicode="&#x24e;" horiz-adv-x="594" 
d="M602 693l-40 -78h40v-92h-87l-135 -263v-260h-165v259l-135 264h-86v92h39l-40 78h174l33 -78h202l33 78h167zM300 375l63 148h-125z" />
    <glyph glyph-name="uni1EF8" unicode="&#x1ef8;" horiz-adv-x="594" 
d="M355 761c-28 0 -47 8 -67 23c-18 13 -30 22 -47 22c-24 0 -37 -16 -53 -44l-79 38c25 64 69 118 129 118c31 0 49 -10 70 -24c18 -13 30 -21 46 -21c22 0 36 15 52 44l79 -39c-26 -67 -71 -117 -130 -117zM601 693l-222 -433v-260h-164v259l-222 434h179l128 -305
l128 305h173z" />
    <glyph glyph-name="Z" unicode="Z" horiz-adv-x="544" 
d="M512 693v-124l-301 -438h306l-16 -131h-483v123l307 443h-276v127h463z" />
    <glyph glyph-name="Zacute" unicode="&#x179;" horiz-adv-x="544" 
d="M357 956l59 -118l-240 -87l-40 80zM512 693v-124l-301 -438h306l-16 -131h-483v123l307 443h-276v127h463z" />
    <glyph glyph-name="Zacute.loclPLK" horiz-adv-x="544" 
d="M301 965l117 -67l-143 -157l-71 41zM512 693v-124l-301 -438h306l-16 -131h-483v123l307 443h-276v127h463z" />
    <glyph glyph-name="Zcaron" unicode="&#x17d;" horiz-adv-x="544" 
d="M410 944l56 -65l-141 -129h-96l-142 129l57 65l133 -84zM512 693v-124l-301 -438h306l-16 -131h-483v123l307 443h-276v127h463z" />
    <glyph glyph-name="Zdotaccent" unicode="&#x17b;" horiz-adv-x="544" 
d="M276 937c55 0 94 -39 94 -90s-39 -90 -94 -90s-93 39 -93 90s38 90 93 90zM512 693v-124l-301 -438h306l-16 -131h-483v123l307 443h-276v127h463z" />
    <glyph glyph-name="uni1E92" unicode="&#x1e92;" horiz-adv-x="544" 
d="M512 693v-124l-301 -438h306l-16 -131h-483v123l307 443h-276v127h463zM265 -239c-56 0 -94 38 -94 89s38 90 94 90c54 0 93 -39 93 -90s-39 -89 -93 -89z" />
    <glyph glyph-name="uni0224" unicode="&#x224;" horiz-adv-x="538" 
d="M512 693v-124l-301 -438h299v-162c0 -128 -81 -191 -201 -191c-65 0 -110 19 -141 43l53 97c24 -12 40 -21 74 -21c38 0 58 20 58 61v42h-335v123l307 443h-276v127h463z" />
    <glyph glyph-name="uni01B5" unicode="&#x1b5;" horiz-adv-x="544" 
d="M197 131h320l-16 -131h-483v116l128 179h-81v105h156l118 166h-290v127h463v-118l-124 -175h79v-105h-154z" />
    <glyph glyph-name="uni0299" unicode="&#x299;" horiz-adv-x="555" 
d="M387 292c94 -11 136 -57 136 -131c0 -113 -98 -161 -237 -161h-225v526c76 14 142 22 210 22c140 0 228 -47 228 -144c0 -59 -37 -99 -112 -112zM268 447c-17 0 -31 0 -49 -2v-122h56c41 0 69 19 69 63c0 41 -26 61 -76 61zM281 104c49 0 80 19 80 71c0 43 -23 65 -79 65
h-63v-136h62z" />
    <glyph glyph-name="uni0262" unicode="&#x262;" 
d="M306 548c95 0 156 -30 207 -72l-76 -83c-39 28 -74 43 -121 43c-75 0 -121 -58 -121 -168c0 -132 38 -171 102 -171c27 0 51 4 73 14v96h-68l-15 104h231v-263c-56 -34 -133 -63 -223 -63c-175 0 -263 94 -263 283c0 174 119 280 274 280z" />
    <glyph glyph-name="uni029B" unicode="&#x29b;" 
d="M543 759c61 0 104 -18 135 -38l-46 -98c-23 12 -41 19 -67 19c-34 0 -52 -18 -52 -61v-105l-68 -75c-42 22 -75 35 -127 35c-78 0 -123 -58 -123 -168c0 -132 38 -171 102 -171c27 0 51 4 73 14v96h-68l-15 104h231v-263c-54 -36 -130 -63 -221 -63
c-177 0 -265 96 -265 283c0 174 119 280 260 280c33 0 58 -4 82 -13v53c0 108 56 171 169 171z" />
    <glyph glyph-name="uni029C" unicode="&#x29c;" horiz-adv-x="584" 
d="M365 0v211h-146v-211h-158v531h158v-203h146v203h158v-531h-158z" />
    <glyph glyph-name="uni026A" unicode="&#x26a;" horiz-adv-x="337" 
d="M322 418h-75v-304h75v-114h-306v114h73v304h-73v113h306v-113z" />
    <glyph glyph-name="uni029F" unicode="&#x29f;" horiz-adv-x="449" 
d="M219 531v-409h221l-16 -122h-363v531h158z" />
    <glyph glyph-name="uni0274" unicode="&#x274;" horiz-adv-x="585" 
d="M524 531v-531h-189l-158 394c11 -63 24 -138 24 -244v-150h-140v531h188l159 -394c-12 68 -23 121 -23 219v175h139z" />
    <glyph glyph-name="uni0276" unicode="&#x276;" horiz-adv-x="768" 
d="M543 216c-8 -42 -25 -78 -48 -106h248v-110h-355c-30 -11 -62 -17 -96 -17c-161 0 -260 104 -260 283c0 170 98 282 260 282c37 0 66 -5 100 -17h353l-16 -109h-232c21 -28 36 -63 44 -100h163v-106h-161zM292 99c61 0 96 51 96 167c0 119 -36 166 -96 166
c-64 0 -96 -51 -96 -166c0 -118 32 -167 96 -167z" />
    <glyph glyph-name="uni0280" unicode="&#x280;" horiz-adv-x="529" 
d="M359 0l-103 183h-43v-183h-152v531h191c149 0 234 -56 234 -175c0 -65 -29 -121 -91 -150l130 -206h-166zM213 430v-151h40c52 0 79 19 79 78c0 56 -29 73 -84 73h-35z" />
    <glyph glyph-name="uni0281" unicode="&#x281;" horiz-adv-x="529" 
d="M396 326c61 -28 90 -81 90 -147c0 -123 -85 -179 -234 -179h-191v531h152v-183h43l103 183h166zM248 102c55 0 84 17 84 76c0 55 -27 75 -79 75h-40v-151h35z" />
    <glyph glyph-name="uni028F" unicode="&#x28f;" horiz-adv-x="498" 
d="M510 531l-182 -339v-192h-158v191l-182 340h168l96 -238l95 238h163z" />
    <glyph glyph-name="a" unicode="a" horiz-adv-x="546" 
d="M482 154c0 -41 11 -56 36 -65l-33 -103c-62 5 -103 24 -128 76c-38 -58 -97 -79 -160 -79c-106 0 -173 69 -173 166c0 116 89 179 249 179h54v23c0 63 -25 82 -90 82c-34 0 -86 -10 -139 -28l-36 104c67 25 140 39 200 39c154 0 220 -65 220 -188v-206zM243 96
c36 0 65 19 84 50v95h-39c-72 0 -106 -25 -106 -78c0 -42 22 -67 61 -67z" />
    <glyph glyph-name="a.map" horiz-adv-x="536" 
d="M262 548c154 0 220 -65 220 -188v-360h-129l-9 45c-38 -45 -90 -62 -147 -62c-106 0 -173 69 -173 166c0 116 89 179 249 179h54v23c0 63 -25 82 -90 82c-34 0 -86 -10 -139 -28l-36 104c67 25 140 39 200 39zM243 96c37 0 65 19 84 50v95h-39c-72 0 -106 -25 -106 -78
c0 -42 22 -67 61 -67z" />
    <glyph glyph-name="a.ss04" horiz-adv-x="597" 
d="M530 178c0 -47 12 -66 43 -81l-46 -114c-71 13 -112 38 -135 81c-35 -48 -90 -81 -155 -81c-134 0 -205 112 -205 284c0 164 84 281 221 281c55 0 99 -22 131 -62l9 45h137v-353zM281 99c37 0 66 19 91 58v232c-24 27 -49 44 -84 44c-55 0 -92 -48 -92 -167
c0 -132 36 -167 85 -167z" />
    <glyph glyph-name="aacute" unicode="&#xe1;" horiz-adv-x="546" 
d="M403 717l-236 -95l-44 81l218 132zM482 154c0 -41 11 -56 36 -65l-33 -103c-62 5 -104 24 -128 76c-38 -58 -97 -79 -160 -79c-106 0 -173 69 -173 166c0 116 89 179 249 179h54v23c0 63 -25 82 -90 82c-34 0 -86 -10 -139 -28l-36 104c67 25 140 39 200 39
c154 0 220 -65 220 -188v-206zM243 96c37 0 65 19 84 50v95h-39c-72 0 -106 -25 -106 -78c0 -42 22 -67 61 -67z" />
    <glyph glyph-name="aacute.loclHUN" horiz-adv-x="546" 
d="M410 763l-142 -162l-71 41l96 187zM482 154c0 -41 11 -56 36 -65l-33 -103c-62 5 -104 24 -128 76c-38 -58 -97 -79 -160 -79c-106 0 -173 69 -173 166c0 116 89 179 249 179h54v23c0 63 -25 82 -90 82c-34 0 -86 -10 -139 -28l-36 104c67 25 140 39 200 39
c154 0 220 -65 220 -188v-206zM243 96c37 0 65 19 84 50v95h-39c-72 0 -106 -25 -106 -78c0 -42 22 -67 61 -67z" />
    <glyph glyph-name="abreve" unicode="&#x103;" horiz-adv-x="546" 
d="M269 632c-105 0 -164 77 -172 173l87 15c12 -48 39 -78 85 -78s73 30 86 78l87 -15c-8 -96 -68 -173 -173 -173zM482 154c0 -41 11 -56 36 -65l-33 -103c-62 5 -104 24 -128 76c-38 -58 -97 -79 -160 -79c-106 0 -173 69 -173 166c0 116 89 179 249 179h54v23
c0 63 -25 82 -90 82c-34 0 -86 -10 -139 -28l-36 104c67 25 140 39 200 39c154 0 220 -65 220 -188v-206zM243 96c37 0 65 19 84 50v95h-39c-72 0 -106 -25 -106 -78c0 -42 22 -67 61 -67z" />
    <glyph glyph-name="uni1EAF" unicode="&#x1eaf;" horiz-adv-x="546" 
d="M429 922l-158 -140l-60 53l132 171zM269 601c-104 0 -163 77 -171 162l87 16c12 -38 39 -68 84 -68c46 0 74 30 86 68l87 -16c-8 -85 -67 -162 -173 -162zM482 154c0 -41 11 -56 36 -65l-33 -103c-62 5 -104 24 -128 76c-38 -58 -97 -79 -160 -79
c-106 0 -173 69 -173 166c0 116 89 179 249 179h54v23c0 63 -25 82 -90 82c-34 0 -86 -10 -139 -28l-36 104c67 25 140 39 200 39c154 0 220 -65 220 -188v-206zM243 96c37 0 65 19 84 50v95h-39c-72 0 -106 -25 -106 -78c0 -42 22 -67 61 -67z" />
    <glyph glyph-name="uni1EB7" unicode="&#x1eb7;" horiz-adv-x="546" 
d="M269 632c-105 0 -164 77 -172 173l87 15c12 -48 39 -78 85 -78s73 30 86 78l87 -15c-8 -96 -68 -173 -173 -173zM482 154c0 -41 11 -56 36 -65l-33 -103c-62 5 -104 24 -128 76c-38 -58 -97 -79 -160 -79c-106 0 -173 69 -173 166c0 116 89 179 249 179h54v23
c0 63 -25 82 -90 82c-34 0 -86 -10 -139 -28l-36 104c67 25 140 39 200 39c154 0 220 -65 220 -188v-206zM243 96c37 0 65 19 84 50v95h-39c-72 0 -106 -25 -106 -78c0 -42 22 -67 61 -67zM269 -60c54 0 93 -39 93 -90s-39 -89 -93 -89c-56 0 -94 38 -94 89s38 90 94 90z
" />
    <glyph glyph-name="uni1EB1" unicode="&#x1eb1;" horiz-adv-x="546" 
d="M325 835l-60 -53l-158 140l86 84zM269 601c-104 0 -163 77 -171 162l87 16c12 -38 39 -68 84 -68c46 0 74 30 86 68l87 -16c-8 -85 -67 -162 -173 -162zM482 154c0 -41 11 -56 36 -65l-33 -103c-62 5 -104 24 -128 76c-38 -58 -97 -79 -160 -79c-106 0 -173 69 -173 166
c0 116 89 179 249 179h54v23c0 63 -25 82 -90 82c-34 0 -86 -10 -139 -28l-36 104c67 25 140 39 200 39c154 0 220 -65 220 -188v-206zM243 96c37 0 65 19 84 50v95h-39c-72 0 -106 -25 -106 -78c0 -42 22 -67 61 -67z" />
    <glyph glyph-name="uni1EB3" unicode="&#x1eb3;" horiz-adv-x="546" 
d="M254 951c-24 0 -40 -5 -60 -13l-26 65c28 17 62 27 109 27c81 0 124 -42 124 -102c0 -52 -30 -83 -84 -93v-53h-94v100c49 3 71 11 71 38c0 21 -16 31 -40 31zM269 601c-105 0 -164 77 -172 162l87 16c12 -38 39 -68 85 -68s73 30 86 68l87 -16
c-8 -85 -68 -162 -173 -162zM482 154c0 -41 11 -56 36 -65l-33 -103c-62 5 -104 24 -128 76c-38 -58 -97 -79 -160 -79c-106 0 -173 69 -173 166c0 116 89 179 249 179h54v23c0 63 -25 82 -90 82c-34 0 -86 -10 -139 -28l-36 104c67 25 140 39 200 39
c154 0 220 -65 220 -188v-206zM243 96c37 0 65 19 84 50v95h-39c-72 0 -106 -25 -106 -78c0 -42 22 -67 61 -67z" />
    <glyph glyph-name="uni1EB5" unicode="&#x1eb5;" horiz-adv-x="546" 
d="M328 823c-28 0 -47 9 -67 22c-18 12 -30 20 -47 20c-24 0 -37 -14 -53 -41l-79 36c25 60 69 110 129 110c31 0 49 -9 70 -22c18 -13 30 -20 46 -20c22 0 36 13 52 41l79 -36c-26 -63 -71 -110 -130 -110zM269 601c-105 0 -164 77 -172 162l88 16c12 -38 38 -68 84 -68
s74 30 86 68l87 -16c-8 -85 -68 -162 -173 -162zM482 154c0 -41 11 -56 36 -65l-33 -103c-62 5 -103 24 -128 76c-38 -58 -97 -79 -160 -79c-106 0 -173 69 -173 166c0 116 89 179 249 179h54v23c0 63 -25 82 -90 82c-34 0 -86 -10 -139 -28l-36 104c67 25 140 39 200 39
c154 0 220 -65 220 -188v-206zM243 96c36 0 65 19 84 50v95h-39c-72 0 -106 -25 -106 -78c0 -42 22 -67 61 -67z" />
    <glyph glyph-name="uni01CE" unicode="&#x1ce;" horiz-adv-x="546" 
d="M402 813l56 -65l-141 -137h-96l-142 137l57 65l133 -91zM482 154c0 -41 11 -56 36 -65l-33 -103c-62 5 -103 24 -128 76c-38 -58 -97 -79 -160 -79c-106 0 -173 69 -173 166c0 116 89 179 249 179h54v23c0 63 -25 82 -90 82c-34 0 -86 -10 -139 -28l-36 104
c67 25 140 39 200 39c154 0 220 -65 220 -188v-206zM243 96c36 0 65 19 84 50v95h-39c-72 0 -106 -25 -106 -78c0 -42 22 -67 61 -67z" />
    <glyph glyph-name="acircumflex" unicode="&#xe2;" horiz-adv-x="546" 
d="M135 620l-56 65l141 137h97l141 -137l-56 -65l-133 92zM482 154c0 -41 11 -56 36 -65l-33 -103c-62 5 -103 24 -128 76c-38 -58 -97 -79 -160 -79c-106 0 -173 69 -173 166c0 116 89 179 249 179h54v23c0 63 -25 82 -90 82c-34 0 -86 -10 -139 -28l-36 104
c67 25 140 39 200 39c154 0 220 -65 220 -188v-206zM243 96c36 0 65 19 84 50v95h-39c-72 0 -106 -25 -106 -78c0 -42 22 -67 61 -67z" />
    <glyph glyph-name="uni1EA5" unicode="&#x1ea5;" horiz-adv-x="546" 
d="M502 957l86 -84l-158 -140l-59 53zM135 585l-57 65l142 129h96l141 -129l-56 -65l-133 84zM482 154c0 -41 11 -56 36 -65l-33 -103c-62 5 -103 24 -128 76c-38 -58 -97 -79 -160 -79c-106 0 -173 69 -173 166c0 116 89 179 249 179h54v23c0 63 -25 82 -90 82
c-34 0 -86 -10 -139 -28l-36 104c67 25 140 39 200 39c154 0 220 -65 220 -188v-206zM243 96c36 0 65 19 84 50v95h-39c-72 0 -106 -25 -106 -78c0 -42 22 -67 61 -67z" />
    <glyph glyph-name="uni1EAD" unicode="&#x1ead;" horiz-adv-x="546" 
d="M135 620l-56 65l141 137h97l141 -137l-56 -65l-133 92zM482 154c0 -41 11 -56 36 -65l-33 -103c-62 5 -103 24 -128 76c-38 -58 -97 -79 -160 -79c-106 0 -173 69 -173 166c0 116 89 179 249 179h54v23c0 63 -25 82 -90 82c-34 0 -86 -10 -139 -28l-36 104
c67 25 140 39 200 39c154 0 220 -65 220 -188v-206zM243 96c36 0 65 19 84 50v95h-39c-72 0 -106 -25 -106 -78c0 -42 22 -67 61 -67zM269 -239c-56 0 -94 38 -94 89s38 90 94 90c54 0 93 -39 93 -90s-39 -89 -93 -89z" />
    <glyph glyph-name="uni1EA7" unicode="&#x1ea7;" horiz-adv-x="546" 
d="M35 957l131 -171l-59 -53l-158 140zM135 585l-57 65l142 129h96l141 -129l-56 -65l-133 84zM482 154c0 -41 11 -56 36 -65l-33 -103c-62 5 -103 24 -128 76c-38 -58 -97 -79 -160 -79c-106 0 -173 69 -173 166c0 116 89 179 249 179h54v23c0 63 -25 82 -90 82
c-34 0 -86 -10 -139 -28l-36 104c67 25 140 39 200 39c154 0 220 -65 220 -188v-206zM243 96c36 0 65 19 84 50v95h-39c-72 0 -106 -25 -106 -78c0 -42 22 -67 61 -67z" />
    <glyph glyph-name="uni1EA9" unicode="&#x1ea9;" horiz-adv-x="546" 
d="M373 753v100c49 3 71 11 71 38c0 21 -16 31 -40 31s-40 -5 -60 -13l-26 65c28 17 62 27 109 27c81 0 124 -42 124 -102c0 -52 -30 -83 -84 -93v-53h-94zM135 585l-57 65l142 129h96l141 -129l-56 -65l-133 84zM482 154c0 -41 11 -56 36 -65l-33 -103
c-62 5 -103 24 -128 76c-38 -58 -97 -79 -160 -79c-106 0 -173 69 -173 166c0 116 89 179 249 179h54v23c0 63 -25 82 -90 82c-34 0 -86 -10 -139 -28l-36 104c67 25 140 39 200 39c154 0 220 -65 220 -188v-206zM243 96c36 0 65 19 84 50v95h-39c-72 0 -106 -25 -106 -78
c0 -42 22 -67 61 -67z" />
    <glyph glyph-name="uni1EAB" unicode="&#x1eab;" horiz-adv-x="546" 
d="M325 815c-28 0 -46 9 -66 22c-19 13 -31 21 -48 21c-24 0 -37 -14 -53 -42l-79 36c25 60 69 111 129 111c31 0 50 -10 70 -23c18 -12 30 -20 46 -20c23 0 36 14 53 41l79 -36c-26 -63 -71 -110 -131 -110zM135 581l-57 65l142 129h96l141 -129l-56 -65l-133 84zM482 154
c0 -41 11 -56 36 -65l-33 -103c-62 5 -103 24 -128 76c-38 -58 -97 -79 -160 -79c-106 0 -173 69 -173 166c0 116 89 179 249 179h54v23c0 63 -25 82 -90 82c-34 0 -86 -10 -139 -28l-36 104c67 25 140 39 200 39c154 0 220 -65 220 -188v-206zM243 96c36 0 65 19 84 50v95
h-39c-72 0 -106 -25 -106 -78c0 -42 22 -67 61 -67z" />
    <glyph glyph-name="uni0201" unicode="&#x201;" horiz-adv-x="546" 
d="M150 860l97 -197l-81 -38l-122 182zM326 860l88 -197l-83 -33l-113 180zM482 154c0 -41 11 -56 36 -65l-33 -103c-62 5 -103 24 -128 76c-38 -58 -97 -79 -160 -79c-106 0 -173 69 -173 166c0 116 89 179 249 179h54v23c0 63 -25 82 -90 82c-34 0 -86 -10 -139 -28
l-36 104c67 25 140 39 200 39c154 0 220 -65 220 -188v-206zM243 96c36 0 65 19 84 50v95h-39c-72 0 -106 -25 -106 -78c0 -42 22 -67 61 -67z" />
    <glyph glyph-name="adieresis" unicode="&#xe4;" horiz-adv-x="546" 
d="M153 799c46 0 81 -35 81 -79s-35 -79 -81 -79c-45 0 -81 35 -81 79s36 79 81 79zM384 799c47 0 81 -35 81 -79s-34 -79 -81 -79c-44 0 -80 35 -80 79s36 79 80 79zM482 154c0 -41 11 -56 36 -65l-33 -103c-62 5 -103 24 -128 76c-38 -58 -97 -79 -160 -79
c-106 0 -173 69 -173 166c0 116 89 179 249 179h54v23c0 63 -25 82 -90 82c-34 0 -86 -10 -139 -28l-36 104c67 25 140 39 200 39c154 0 220 -65 220 -188v-206zM243 96c36 0 65 19 84 50v95h-39c-72 0 -106 -25 -106 -78c0 -42 22 -67 61 -67z" />
    <glyph glyph-name="uni01DF" unicode="&#x1df;" horiz-adv-x="546" 
d="M422 816h-305v110h305v-110zM152 760c46 0 81 -35 81 -79s-35 -79 -81 -79c-45 0 -81 35 -81 79s36 79 81 79zM383 760c47 0 81 -35 81 -79s-34 -79 -81 -79c-44 0 -80 35 -80 79s36 79 80 79zM482 154c0 -41 11 -56 36 -65l-33 -103c-62 5 -103 24 -128 76
c-38 -58 -97 -79 -160 -79c-106 0 -173 69 -173 166c0 116 89 179 249 179h54v23c0 63 -25 82 -90 82c-34 0 -86 -10 -139 -28l-36 104c67 25 140 39 200 39c154 0 220 -65 220 -188v-206zM243 96c36 0 65 19 84 50v95h-39c-72 0 -106 -25 -106 -78c0 -42 22 -67 61 -67z
" />
    <glyph glyph-name="uni0227" unicode="&#x227;" horiz-adv-x="546" 
d="M268 811c55 0 94 -39 94 -90s-39 -90 -94 -90s-93 39 -93 90s38 90 93 90zM482 154c0 -41 11 -56 36 -65l-33 -103c-62 5 -103 24 -128 76c-38 -58 -97 -79 -160 -79c-106 0 -173 69 -173 166c0 116 89 179 249 179h54v23c0 63 -25 82 -90 82c-34 0 -86 -10 -139 -28
l-36 104c67 25 140 39 200 39c154 0 220 -65 220 -188v-206zM243 96c36 0 65 19 84 50v95h-39c-72 0 -106 -25 -106 -78c0 -42 22 -67 61 -67z" />
    <glyph glyph-name="uni1EA1" unicode="&#x1ea1;" horiz-adv-x="546" 
d="M482 154c0 -41 11 -56 36 -65l-33 -103c-62 5 -103 24 -128 76c-38 -58 -97 -79 -160 -79c-106 0 -173 69 -173 166c0 116 89 179 249 179h54v23c0 63 -25 82 -90 82c-34 0 -86 -10 -139 -28l-36 104c67 25 140 39 200 39c154 0 220 -65 220 -188v-206zM243 96
c36 0 65 19 84 50v95h-39c-72 0 -106 -25 -106 -78c0 -42 22 -67 61 -67zM269 -239c-56 0 -94 38 -94 89s38 90 94 90c54 0 93 -39 93 -90s-39 -89 -93 -89z" />
    <glyph glyph-name="uni01E1" unicode="&#x1e1;" horiz-adv-x="546" 
d="M422 837h-306v109h306v-109zM268 773c55 0 94 -39 94 -90c0 -50 -39 -89 -94 -89s-93 39 -93 89c0 51 38 90 93 90zM482 154c0 -41 11 -56 36 -65l-33 -103c-62 5 -103 24 -128 76c-38 -58 -97 -79 -160 -79c-106 0 -173 69 -173 166c0 116 89 179 249 179h54v23
c0 63 -25 82 -90 82c-34 0 -86 -10 -139 -28l-36 104c67 25 140 39 200 39c154 0 220 -65 220 -188v-206zM243 96c36 0 65 19 84 50v95h-39c-72 0 -106 -25 -106 -78c0 -42 22 -67 61 -67z" />
    <glyph glyph-name="agrave" unicode="&#xe0;" horiz-adv-x="546" 
d="M201 835l218 -132l-44 -81l-236 95zM482 154c0 -41 11 -56 36 -65l-33 -103c-62 5 -103 24 -128 76c-38 -58 -97 -79 -160 -79c-106 0 -173 69 -173 166c0 116 89 179 249 179h54v23c0 63 -25 82 -90 82c-34 0 -86 -10 -139 -28l-36 104c67 25 140 39 200 39
c154 0 220 -65 220 -188v-206zM243 96c36 0 65 19 84 50v95h-39c-72 0 -106 -25 -106 -78c0 -42 22 -67 61 -67z" />
    <glyph glyph-name="uni1EA3" unicode="&#x1ea3;" horiz-adv-x="546" 
d="M222 605v99c49 3 71 12 71 38c0 21 -16 31 -40 31c-23 0 -40 -5 -60 -13l-26 66c28 16 62 26 109 26c81 0 124 -42 124 -101c0 -52 -30 -84 -84 -94v-52h-94zM482 154c0 -41 11 -56 36 -65l-33 -103c-62 5 -103 24 -128 76c-38 -58 -97 -79 -160 -79
c-106 0 -173 69 -173 166c0 116 89 179 249 179h54v23c0 63 -25 82 -90 82c-34 0 -86 -10 -139 -28l-36 104c67 25 140 39 200 39c154 0 220 -65 220 -188v-206zM243 96c36 0 65 19 84 50v95h-39c-72 0 -106 -25 -106 -78c0 -42 22 -67 61 -67z" />
    <glyph glyph-name="uni0203" unicode="&#x203;" horiz-adv-x="546" 
d="M269 789c105 0 165 -77 173 -172l-87 -15c-13 48 -40 77 -86 77s-73 -29 -85 -77l-87 15c8 95 67 172 172 172zM482 154c0 -41 11 -56 36 -65l-33 -103c-62 5 -103 24 -128 76c-38 -58 -97 -79 -160 -79c-106 0 -173 69 -173 166c0 116 89 179 249 179h54v23
c0 63 -25 82 -90 82c-34 0 -86 -10 -139 -28l-36 104c67 25 140 39 200 39c154 0 220 -65 220 -188v-206zM243 96c36 0 65 19 84 50v95h-39c-72 0 -106 -25 -106 -78c0 -42 22 -67 61 -67z" />
    <glyph glyph-name="uni0251" unicode="&#x251;" horiz-adv-x="597" 
d="M530 178c0 -47 12 -66 43 -81l-46 -114c-71 13 -112 38 -135 81c-35 -48 -90 -81 -155 -81c-134 0 -205 112 -205 284c0 164 84 281 221 281c55 0 99 -22 131 -62l9 45h137v-353zM281 99c37 0 66 19 91 58v232c-24 27 -49 44 -84 44c-55 0 -92 -48 -92 -167
c0 -132 36 -167 85 -167z" />
    <glyph glyph-name="uni0252" unicode="&#x252;" horiz-adv-x="597" 
d="M360 548c134 0 205 -112 205 -284c0 -164 -84 -281 -221 -281c-55 0 -99 22 -131 62l-9 -45h-137v353c0 47 -12 66 -43 81l46 114c71 -13 112 -38 135 -81c35 48 90 81 155 81zM309 98c55 0 92 48 92 167c0 132 -36 167 -85 167c-37 0 -66 -19 -91 -58v-232
c24 -27 49 -44 84 -44z" />
    <glyph glyph-name="amacron" unicode="&#x101;" horiz-adv-x="546" 
d="M421 655h-305v110h305v-110zM482 154c0 -41 11 -56 36 -65l-33 -103c-62 5 -103 24 -128 76c-38 -58 -97 -79 -160 -79c-106 0 -173 69 -173 166c0 116 89 179 249 179h54v23c0 63 -25 82 -90 82c-34 0 -86 -10 -139 -28l-36 104c67 25 140 39 200 39
c154 0 220 -65 220 -188v-206zM243 96c36 0 65 19 84 50v95h-39c-72 0 -106 -25 -106 -78c0 -42 22 -67 61 -67z" />
    <glyph glyph-name="aogonek" unicode="&#x105;" horiz-adv-x="546" 
d="M486 -14c-99 -37 -118 -74 -118 -102c0 -30 17 -46 53 -46c19 0 38 3 61 8l-11 -98c-22 -5 -44 -8 -70 -8c-85 0 -147 45 -147 117c0 75 54 124 141 157c-16 12 -28 27 -38 48c-38 -58 -97 -79 -160 -79c-106 0 -173 69 -173 166c0 116 89 179 249 179h54v23
c0 63 -25 82 -90 82c-34 0 -86 -10 -139 -28l-36 104c67 25 140 39 200 39c154 0 220 -65 220 -188v-206c0 -41 11 -56 36 -65l-33 -102zM327 146v95h-39c-72 0 -106 -25 -106 -78c0 -42 22 -67 61 -67c36 0 65 19 84 50z" />
    <glyph glyph-name="aring" unicode="&#xe5;" horiz-adv-x="546" 
d="M269 867c86 0 139 -60 139 -131s-53 -131 -139 -131s-139 60 -139 131s53 131 139 131zM269 786c-27 0 -45 -17 -45 -50s18 -50 45 -50c26 0 45 17 45 50s-18 50 -45 50zM482 154c0 -41 11 -56 36 -65l-33 -103c-62 5 -103 24 -128 76c-38 -58 -97 -79 -160 -79
c-106 0 -173 69 -173 166c0 116 89 179 249 179h54v23c0 63 -25 82 -90 82c-34 0 -86 -10 -139 -28l-36 104c67 25 140 39 200 39c154 0 220 -65 220 -188v-206zM243 96c36 0 65 19 84 50v95h-39c-72 0 -106 -25 -106 -78c0 -42 22 -67 61 -67z" />
    <glyph glyph-name="aringacute" unicode="&#x1fb;" horiz-adv-x="546" 
d="M351 1049l59 -119l-240 -86l-40 80zM268 840c86 0 139 -60 139 -131s-53 -132 -139 -132s-139 61 -139 132s53 131 139 131zM268 758c-27 0 -45 -16 -45 -49s18 -50 45 -50s45 17 45 50s-18 49 -45 49zM482 154c0 -41 11 -56 36 -65l-33 -103c-62 5 -103 24 -128 76
c-38 -58 -97 -79 -160 -79c-106 0 -173 69 -173 166c0 116 89 179 249 179h54v23c0 63 -25 82 -90 82c-34 0 -86 -10 -139 -28l-36 104c67 25 140 39 200 39c154 0 220 -65 220 -188v-206zM243 96c36 0 65 19 84 50v95h-39c-72 0 -106 -25 -106 -78c0 -42 22 -67 61 -67z
" />
    <glyph glyph-name="uni2C65" unicode="&#x2c65;" horiz-adv-x="546" 
d="M482 154c0 -41 11 -56 36 -65l-33 -103c-62 5 -104 24 -128 76c-32 -49 -79 -72 -132 -77l-14 -59l-53 12l12 47c-90 11 -146 76 -146 164c0 105 82 168 229 173l30 119c-8 1 -17 1 -27 1c-40 0 -105 -10 -158 -28l-36 95c67 25 140 39 200 39c17 0 33 -1 47 -2l14 55
l52 -13l-13 -52c83 -24 120 -84 120 -176v-206zM346 361c0 25 -4 43 -13 56l-24 -95h37v39zM252 90c37 4 68 24 94 56v95h-57zM169 159c0 -29 9 -50 29 -61l34 138c-43 -9 -63 -34 -63 -77z" />
    <glyph glyph-name="uni2C65.map" horiz-adv-x="536" 
d="M362 536c83 -24 120 -84 120 -176v-360h-121l-7 57c-32 -46 -78 -67 -129 -72l-14 -59l-53 12l12 47c-90 11 -146 76 -146 164c0 105 82 168 229 173l30 119c-8 1 -17 1 -27 1c-40 0 -105 -10 -158 -28l-36 95c67 25 140 39 200 39c17 0 33 -1 47 -2l14 55l52 -13z
M346 361c0 25 -4 43 -13 56l-24 -95h37v39zM252 90c37 4 68 24 94 56v95h-57zM169 159c0 -29 9 -50 29 -61l34 138c-43 -9 -63 -34 -63 -77z" />
    <glyph glyph-name="atilde" unicode="&#xe3;" horiz-adv-x="546" 
d="M327 635c-28 0 -47 8 -67 23c-18 13 -30 22 -47 22c-24 0 -37 -16 -53 -44l-79 38c25 64 69 118 129 118c31 0 49 -10 70 -24c18 -13 30 -21 46 -21c22 0 36 15 52 44l79 -39c-26 -67 -71 -117 -130 -117zM482 154c0 -41 11 -56 36 -65l-33 -103c-62 5 -103 24 -128 76
c-38 -58 -97 -79 -160 -79c-106 0 -173 69 -173 166c0 116 89 179 249 179h54v23c0 63 -25 82 -90 82c-34 0 -86 -10 -139 -28l-36 104c67 25 140 39 200 39c154 0 220 -65 220 -188v-206zM243 96c36 0 65 19 84 50v95h-39c-72 0 -106 -25 -106 -78c0 -42 22 -67 61 -67z
" />
    <glyph glyph-name="uni0250" unicode="&#x250;" horiz-adv-x="547" 
d="M64 377c0 41 -11 56 -36 65l33 103c62 -5 103 -24 128 -76c38 58 97 79 160 79c106 0 173 -69 173 -166c0 -116 -89 -179 -249 -179h-54v-23c0 -63 25 -82 90 -82c34 0 86 10 139 28l36 -104c-67 -25 -140 -39 -200 -39c-154 0 -220 65 -220 188v206zM303 435
c-36 0 -65 -19 -84 -50v-95h39c72 0 106 25 106 78c0 42 -22 67 -61 67z" />
    <glyph glyph-name="ae" unicode="&#xe6;" horiz-adv-x="855" 
d="M826 276c0 -17 -1 -41 -3 -57h-329c10 -95 55 -121 121 -121c43 0 81 15 127 47l65 -88c-53 -42 -121 -74 -207 -74c-96 0 -167 35 -211 91c-47 -68 -114 -91 -188 -91c-110 0 -177 69 -177 166c0 116 90 179 255 179h54v22c0 62 -25 82 -89 82c-35 0 -87 -10 -140 -28
l-35 105c66 25 139 39 200 39c81 0 130 -26 162 -67c39 41 91 67 162 67c140 0 233 -100 233 -272zM670 314v7c0 72 -22 122 -86 122c-52 0 -83 -34 -90 -129h176zM251 96c40 0 69 24 95 64c-6 23 -10 48 -11 74v4h-40c-70 0 -104 -23 -104 -78c0 -40 21 -64 60 -64z" />
    <glyph glyph-name="aeacute" unicode="&#x1fd;" horiz-adv-x="855" 
d="M561 717l-236 -95l-44 81l218 132zM826 276c0 -17 -1 -41 -3 -57h-329c10 -95 55 -121 121 -121c43 0 81 15 127 47l65 -88c-53 -42 -121 -74 -207 -74c-96 0 -167 35 -211 91c-47 -68 -114 -91 -188 -91c-110 0 -177 69 -177 166c0 116 90 179 255 179h54v22
c0 62 -25 82 -89 82c-35 0 -87 -10 -140 -28l-35 105c66 25 139 39 200 39c81 0 130 -26 162 -67c39 41 91 67 162 67c140 0 233 -100 233 -272zM670 314v7c0 72 -22 122 -86 122c-52 0 -83 -34 -90 -129h176zM251 96c40 0 69 24 95 64c-6 23 -10 48 -11 74v4h-40
c-70 0 -104 -23 -104 -78c0 -40 21 -64 60 -64z" />
    <glyph glyph-name="uni01E3" unicode="&#x1e3;" horiz-adv-x="855" 
d="M579 765v-110h-305v110h305zM826 276c0 -17 -1 -41 -3 -57h-329c10 -95 55 -121 121 -121c43 0 81 15 127 47l65 -88c-53 -42 -121 -74 -207 -74c-96 0 -167 35 -211 91c-47 -68 -114 -91 -188 -91c-110 0 -177 69 -177 166c0 116 90 179 255 179h54v22
c0 62 -25 82 -89 82c-35 0 -87 -10 -140 -28l-35 105c66 25 139 39 200 39c81 0 130 -26 162 -67c39 41 91 67 162 67c140 0 233 -100 233 -272zM670 314v7c0 72 -22 122 -86 122c-52 0 -83 -34 -90 -129h176zM251 96c40 0 69 24 95 64c-6 23 -10 48 -11 74v4h-40
c-70 0 -104 -23 -104 -78c0 -40 21 -64 60 -64z" />
    <glyph glyph-name="b" unicode="b" horiz-adv-x="591" 
d="M362 548c127 0 197 -105 197 -283c0 -164 -79 -282 -211 -282c-59 0 -107 26 -139 68l-8 -51h-140v742l158 17v-282c32 44 84 71 143 71zM302 98c55 0 93 43 93 167c0 135 -36 167 -86 167c-36 0 -67 -23 -90 -62v-221c20 -32 49 -51 83 -51z" />
    <glyph glyph-name="uni1E03" unicode="&#x1e03;" horiz-adv-x="591" 
d="M317 806c-55 0 -93 39 -93 90s38 90 93 90s94 -39 94 -90s-39 -90 -94 -90zM362 548c127 0 197 -105 197 -283c0 -164 -79 -282 -211 -282c-59 0 -107 26 -139 68l-8 -51h-140v742l158 17v-282c32 44 84 71 143 71zM302 98c55 0 93 43 93 167c0 135 -36 167 -86 167
c-36 0 -67 -23 -90 -62v-221c20 -32 49 -51 83 -51z" />
    <glyph glyph-name="uni1E05" unicode="&#x1e05;" horiz-adv-x="591" 
d="M362 548c127 0 197 -105 197 -283c0 -164 -79 -282 -211 -282c-59 0 -107 26 -139 68l-8 -51h-140v742l158 17v-282c32 44 84 71 143 71zM302 98c55 0 93 43 93 167c0 135 -36 167 -86 167c-36 0 -67 -23 -90 -62v-221c20 -32 49 -51 83 -51zM307 -60c54 0 93 -39 93 -90
s-39 -89 -93 -89c-56 0 -94 38 -94 89s38 90 94 90z" />
    <glyph glyph-name="uniA7B5" unicode="&#xa7b5;" horiz-adv-x="606" 
d="M385 405c85 -8 195 -45 195 -198c0 -134 -97 -224 -226 -224c-57 0 -102 17 -141 45v-228l-152 -22v768c0 135 97 213 235 213c141 0 228 -79 228 -189c0 -88 -50 -145 -139 -165zM313 104c61 0 108 35 108 116c0 93 -53 124 -128 124h-39l10 107h24c50 0 83 34 83 105
c0 63 -30 91 -78 91c-51 0 -80 -32 -80 -100v-419c26 -16 56 -24 100 -24z" />
    <glyph glyph-name="uni0253" unicode="&#x253;" horiz-adv-x="591" 
d="M359 548c131 0 200 -105 200 -283c0 -164 -79 -282 -211 -282c-59 0 -107 26 -139 68l-8 -51h-140v578c0 102 67 181 203 181c55 0 106 -14 145 -34l-43 -101c-30 13 -60 18 -83 18c-46 0 -64 -20 -64 -70v-95c32 44 85 71 140 71zM303 98c54 0 92 43 92 167
c0 135 -36 167 -86 167c-37 0 -67 -23 -90 -62v-221c20 -32 50 -51 84 -51z" />
    <glyph glyph-name="uni02AD" unicode="&#x2ad;" horiz-adv-x="365" 
d="M30 400v165h305v-165h-94v84h-117v-84h-94zM30 0v165h305v-165h-94v84h-117v-84h-94z" />
    <glyph glyph-name="uni0298" unicode="&#x298;" horiz-adv-x="798" 
d="M399 710c217 0 365 -139 365 -363c0 -216 -148 -364 -365 -364s-366 140 -366 364c0 215 149 363 366 363zM399 600c-129 0 -211 -77 -211 -253c0 -177 83 -254 211 -254c131 0 211 77 211 254c0 176 -87 253 -211 253zM401 425c49 0 82 -34 82 -78s-33 -78 -82 -78
c-48 0 -81 34 -81 78s33 78 81 78z" />
    <glyph glyph-name="uni02AC" unicode="&#x2ac;" horiz-adv-x="469" 
d="M439 667l-61 -267h-104l-36 194l-39 -194h-103l-65 267h80l40 -206l41 206h95l38 -207l38 207h76zM439 267l-61 -267h-104l-36 194l-39 -194h-103l-65 267h80l40 -206l41 206h95l38 -207l38 207h76z" />
    <glyph glyph-name="uni0180" unicode="&#x180;" horiz-adv-x="599" 
d="M371 548c126 0 196 -105 196 -283c0 -164 -79 -282 -211 -282c-59 0 -106 26 -139 67l-7 -50h-141v596h-61v92h61v54l158 17v-71h133v-92h-133v-120c31 44 84 72 144 72zM310 98c56 0 94 43 94 167c0 135 -36 167 -87 167c-36 0 -67 -23 -90 -62v-220
c21 -33 49 -52 83 -52z" />
    <glyph glyph-name="uni0183" unicode="&#x183;" horiz-adv-x="591" 
d="M359 536c131 0 200 -105 200 -277c0 -158 -79 -276 -211 -276c-59 0 -107 26 -139 68l-8 -51h-140v742h376l-17 -113h-201v-164c32 43 85 71 140 71zM303 98c54 0 92 43 92 161c0 128 -36 161 -86 161c-37 0 -67 -23 -90 -62v-209c20 -32 50 -51 84 -51z" />
    <glyph glyph-name="c" unicode="c" horiz-adv-x="479" 
d="M292 548c74 0 131 -22 182 -65l-68 -94c-34 26 -65 38 -101 38c-68 0 -107 -46 -107 -165c0 -118 42 -154 105 -154c38 0 64 12 102 36l69 -98c-49 -39 -106 -63 -179 -63c-163 0 -263 110 -263 278c0 169 101 287 260 287z" />
    <glyph glyph-name="cacute" unicode="&#x107;" horiz-adv-x="479" 
d="M363 835l62 -118l-236 -95l-44 81zM292 548c74 0 131 -22 182 -65l-68 -94c-34 26 -65 38 -101 38c-68 0 -107 -46 -107 -165c0 -118 42 -154 105 -154c38 0 64 12 102 36l69 -98c-49 -39 -106 -63 -179 -63c-163 0 -263 110 -263 278c0 169 101 287 260 287z" />
    <glyph glyph-name="cacute.loclPLK" horiz-adv-x="479" 
d="M315 829l117 -66l-142 -162l-71 41zM292 548c74 0 131 -22 182 -65l-68 -94c-34 26 -65 38 -101 38c-68 0 -107 -46 -107 -165c0 -118 42 -154 105 -154c38 0 64 12 102 36l69 -98c-49 -39 -106 -63 -179 -63c-163 0 -263 110 -263 278c0 169 101 287 260 287z" />
    <glyph glyph-name="ccaron" unicode="&#x10d;" horiz-adv-x="479" 
d="M424 813l56 -65l-141 -137h-96l-142 137l57 65l133 -91zM292 548c74 0 131 -22 182 -65l-68 -94c-34 26 -65 38 -101 38c-68 0 -107 -46 -107 -165c0 -118 42 -154 105 -154c38 0 64 12 102 36l69 -98c-49 -39 -106 -63 -179 -63c-163 0 -263 110 -263 278
c0 169 101 287 260 287z" />
    <glyph glyph-name="ccedilla" unicode="&#xe7;" horiz-adv-x="479" 
d="M474 46c-43 -34 -91 -56 -151 -62v-32c72 -8 104 -45 104 -99c0 -68 -58 -115 -149 -115c-47 0 -87 13 -112 30l36 73c20 -10 39 -17 64 -17c28 0 47 8 47 30c0 24 -28 34 -92 34l12 101c-126 25 -201 127 -201 272c0 169 101 287 260 287c74 0 131 -22 182 -65l-68 -94
c-34 26 -65 38 -101 38c-68 0 -107 -46 -107 -165c0 -118 42 -154 105 -154c38 0 64 12 102 36z" />
    <glyph glyph-name="ccircumflex" unicode="&#x109;" horiz-adv-x="479" 
d="M157 620l-56 65l141 137h97l141 -137l-56 -65l-133 92zM292 548c74 0 131 -22 182 -65l-68 -94c-34 26 -65 38 -101 38c-68 0 -107 -46 -107 -165c0 -118 42 -154 105 -154c38 0 64 12 102 36l69 -98c-49 -39 -106 -63 -179 -63c-163 0 -263 110 -263 278
c0 169 101 287 260 287z" />
    <glyph glyph-name="uni0255" unicode="&#x255;" horiz-adv-x="501" 
d="M367 255c72 0 128 -43 128 -120c0 -103 -86 -152 -191 -152c-30 0 -51 3 -70 7l-34 -74l-77 30l34 73c-80 43 -125 130 -125 242c0 169 101 287 260 287c74 0 131 -22 182 -65l-69 -95c-33 27 -64 39 -100 39c-68 0 -107 -46 -107 -165c0 -53 9 -90 21 -114
c33 76 78 107 148 107zM324 97c38 0 60 13 60 42c0 19 -10 30 -31 30c-28 0 -47 -17 -70 -67c13 -3 25 -5 41 -5z" />
    <glyph glyph-name="cdotaccent" unicode="&#x10b;" horiz-adv-x="479" 
d="M290 811c55 0 94 -39 94 -90s-39 -90 -94 -90s-93 39 -93 90s38 90 93 90zM292 548c74 0 131 -22 182 -65l-68 -94c-34 26 -65 38 -101 38c-68 0 -107 -46 -107 -165c0 -118 42 -154 105 -154c38 0 64 12 102 36l69 -98c-49 -39 -106 -63 -179 -63
c-163 0 -263 110 -263 278c0 169 101 287 260 287z" />
    <glyph glyph-name="uniAB53" unicode="&#xab53;" horiz-adv-x="502" 
d="M336 185l177 -395h-159l-100 270l-103 -270l-162 5l180 388l-150 348h158l79 -243l76 243h160z" />
    <glyph glyph-name="uni0188" unicode="&#x188;" horiz-adv-x="479" 
d="M504 759c60 0 104 -18 135 -38l-46 -98c-23 12 -42 19 -68 19c-34 0 -51 -18 -51 -61v-98l-59 -82c-31 16 -63 26 -108 26c-70 0 -109 -46 -109 -165c0 -118 42 -154 105 -154c38 0 64 12 102 36l69 -98c-49 -39 -106 -63 -179 -63c-163 0 -263 110 -263 278
c0 169 102 287 241 287c23 0 43 -3 61 -9v49c0 108 57 171 170 171z" />
    <glyph glyph-name="uni0297" unicode="&#x297;" horiz-adv-x="488" 
d="M314 548c66 0 122 -22 169 -65l-65 -91c-33 23 -61 35 -96 35c-73 0 -115 -72 -115 -267c0 -194 43 -256 110 -256c36 0 62 12 97 36l69 -98c-48 -39 -106 -63 -171 -63c-174 0 -270 137 -270 381s100 388 272 388z" />
    <glyph glyph-name="uni023C" unicode="&#x23c;" horiz-adv-x="479" 
d="M303 108c38 0 64 12 102 36l69 -98c-49 -39 -106 -63 -179 -63c-17 0 -33 1 -48 3l-16 -60l-56 13l16 61c-100 38 -159 132 -159 261c0 169 101 287 260 287c16 0 31 -1 45 -3l15 56l55 -14l-15 -56c30 -10 57 -27 82 -48l-68 -94c-15 12 -30 20 -45 27l-81 -306
c7 -1 15 -2 23 -2zM198 262c0 -61 11 -100 30 -123l77 288c-68 0 -107 -46 -107 -165z" />
    <glyph glyph-name="d" unicode="d" horiz-adv-x="594" 
d="M375 759l158 -17v-742h-140l-8 62c-31 -44 -79 -79 -151 -79c-135 0 -202 112 -202 284c0 164 86 281 217 281c52 0 95 -19 126 -50v261zM283 99c38 0 67 20 92 60v229c-24 28 -48 45 -83 45c-56 0 -96 -48 -96 -167c0 -132 36 -167 87 -167z" />
    <glyph glyph-name="eth" unicode="&#xf0;" horiz-adv-x="579" 
d="M357 670c137 -97 185 -225 185 -393c0 -164 -94 -294 -259 -294c-142 0 -251 92 -251 251c0 136 87 245 208 245c56 0 98 -17 132 -47c-18 60 -46 106 -102 150l-55 -55l-99 46l57 59c-34 11 -65 18 -92 22l32 104c47 -8 89 -17 146 -38l73 78l80 -71zM285 98
c65 0 96 52 96 158c0 25 -1 48 -1 71c-25 27 -57 42 -97 42c-66 0 -90 -53 -90 -132c0 -98 36 -139 92 -139z" />
    <glyph glyph-name="uni0238" unicode="&#x238;" horiz-adv-x="865" 
d="M650 548c115 0 183 -105 183 -283c0 -164 -80 -282 -201 -282c-54 0 -99 29 -128 76l-9 -59h-122l-8 61c-31 -43 -78 -78 -141 -78c-125 0 -192 112 -192 284c0 164 82 281 203 281c45 0 88 -21 120 -64v258l158 17v-283c32 45 79 72 137 72zM274 99c28 0 56 20 81 59
v224c-22 33 -47 51 -77 51c-46 0 -82 -48 -82 -167c0 -132 36 -167 78 -167zM590 98c41 0 79 43 79 167c0 135 -34 167 -75 167c-34 0 -60 -24 -81 -56v-219c20 -37 44 -59 77 -59z" />
    <glyph glyph-name="dcaron" unicode="&#x10f;" horiz-adv-x="686" 
d="M375 498v261l158 -17v-742h-140l-8 62c-31 -44 -79 -79 -151 -79c-135 0 -202 112 -202 284c0 164 86 281 217 281c52 0 95 -19 126 -50zM599 758l119 -17l-55 -215l-87 13zM283 99c38 0 67 20 92 60v229c-24 28 -48 45 -83 45c-56 0 -96 -48 -96 -167
c0 -132 36 -167 87 -167z" />
    <glyph glyph-name="uni1E13" unicode="&#x1e13;" horiz-adv-x="594" 
d="M375 759l158 -17v-742h-140l-8 62c-31 -44 -79 -79 -151 -79c-135 0 -202 112 -202 284c0 164 86 281 217 281c52 0 95 -19 126 -50v261zM283 99c38 0 67 20 92 60v229c-24 28 -48 45 -83 45c-56 0 -96 -48 -96 -167c0 -132 36 -167 87 -167zM254 -63h97l141 -137
l-56 -65l-133 92l-134 -92l-56 65z" />
    <glyph glyph-name="dcroat" unicode="&#x111;" horiz-adv-x="608" 
d="M533 688h67v-92h-67v-596h-140l-8 62c-31 -44 -79 -79 -151 -79c-135 0 -202 112 -202 284c0 164 86 281 217 281c52 0 95 -19 126 -50v98h-132v92h132v71l158 -17v-54zM283 99c38 0 67 20 92 60v229c-24 28 -48 45 -83 45c-56 0 -96 -48 -96 -167
c0 -132 36 -167 87 -167z" />
    <glyph glyph-name="uni0221" unicode="&#x221;" horiz-adv-x="783" 
d="M670 245c68 0 121 -43 121 -114c0 -100 -84 -148 -192 -148c-16 0 -33 1 -50 4l-31 -71l-78 30l31 66c-29 16 -54 38 -71 70c-38 -61 -90 -99 -166 -99c-135 0 -202 112 -202 284c0 164 83 281 220 281c49 0 92 -19 123 -50v261l158 -17v-552c0 -17 1 -32 4 -43
c31 68 69 98 133 98zM284 99c38 0 67 21 93 62c-1 11 -2 22 -2 33v194c-24 28 -47 45 -82 45c-57 0 -97 -48 -97 -167c0 -132 36 -167 88 -167zM622 97c38 0 59 12 59 36c0 17 -10 27 -27 27c-22 0 -35 -14 -56 -62c7 -1 15 -1 24 -1z" />
    <glyph glyph-name="uni1E0B" unicode="&#x1e0b;" horiz-adv-x="594" 
d="M292 806c-55 0 -93 39 -93 90s38 90 93 90s94 -39 94 -90s-39 -90 -94 -90zM375 759l158 -17v-742h-140l-8 62c-31 -44 -79 -79 -151 -79c-135 0 -202 112 -202 284c0 164 86 281 217 281c52 0 95 -19 126 -50v261zM283 99c38 0 67 20 92 60v229c-24 28 -48 45 -83 45
c-56 0 -96 -48 -96 -167c0 -132 36 -167 87 -167z" />
    <glyph glyph-name="uni1E0D" unicode="&#x1e0d;" horiz-adv-x="594" 
d="M375 759l158 -17v-742h-140l-8 62c-31 -44 -79 -79 -151 -79c-135 0 -202 112 -202 284c0 164 86 281 217 281c52 0 95 -19 126 -50v261zM283 99c38 0 67 20 92 60v229c-24 28 -48 45 -83 45c-56 0 -96 -48 -96 -167c0 -132 36 -167 87 -167zM303 -60c54 0 93 -39 93 -90
s-39 -89 -93 -89c-56 0 -94 38 -94 89s38 90 94 90z" />
    <glyph glyph-name="uni018D" unicode="&#x18d;" horiz-adv-x="577" 
d="M392 74c82 -45 99 -88 99 -142c0 -83 -65 -155 -214 -155c-84 0 -147 27 -191 61l72 84c34 -23 66 -35 108 -35c53 0 74 21 74 48c0 32 -13 47 -101 82c-141 58 -207 128 -207 266c0 159 99 265 257 265s256 -96 256 -258c0 -98 -55 -170 -153 -216zM196 283
c0 -92 20 -124 115 -171c54 45 72 97 72 172c0 101 -30 148 -94 148c-61 0 -93 -46 -93 -149z" />
    <glyph glyph-name="uni02A4" unicode="&#x2a4;" horiz-adv-x="1014" 
d="M533 0h-140l-8 62c-31 -44 -79 -79 -151 -79c-135 0 -202 112 -202 284c0 164 86 281 217 281c52 0 95 -19 126 -50v261l158 -17v-742zM786 212c136 -8 216 -73 216 -203c0 -132 -100 -231 -269 -231c-108 0 -183 39 -236 103l84 80c47 -43 87 -62 143 -62
c68 0 115 38 115 120c0 74 -43 101 -126 101h-93v92l171 201h-254v118h433v-108zM283 99c38 0 67 20 92 60v229c-24 28 -48 45 -83 45c-56 0 -96 -48 -96 -167c0 -132 36 -167 87 -167z" />
    <glyph glyph-name="uni0257" unicode="&#x257;" horiz-adv-x="595" 
d="M563 759c61 0 104 -18 135 -38l-46 -98c-23 12 -41 19 -68 19c-34 0 -51 -18 -51 -61v-581h-140l-8 62c-31 -44 -79 -79 -151 -79c-135 0 -202 112 -202 284c0 164 83 281 220 281c49 0 92 -19 123 -50v78c0 108 64 183 188 183zM284 99c37 0 66 20 91 60v229
c-24 28 -47 45 -82 45c-57 0 -97 -48 -97 -167c0 -132 36 -167 88 -167z" />
    <glyph glyph-name="uni1E0F" unicode="&#x1e0f;" horiz-adv-x="594" 
d="M375 759l158 -17v-742h-140l-8 62c-31 -44 -79 -79 -151 -79c-135 0 -202 112 -202 284c0 164 86 281 217 281c52 0 95 -19 126 -50v261zM283 99c38 0 67 20 92 60v229c-24 28 -48 45 -83 45c-56 0 -96 -48 -96 -167c0 -132 36 -167 87 -167zM150 -191v109h305v-109h-305
z" />
    <glyph glyph-name="uni0256" unicode="&#x256;" horiz-adv-x="595" 
d="M660 -87l53 -92c-32 -24 -76 -43 -142 -43c-117 0 -196 64 -196 191v80c-31 -38 -76 -66 -141 -66c-135 0 -202 112 -202 284c0 164 83 281 220 281c49 0 92 -19 123 -50v261l158 -17v-788c0 -41 21 -61 56 -61c30 0 47 8 71 20zM284 99c37 0 66 20 91 60v229
c-24 28 -47 45 -82 45c-57 0 -97 -48 -97 -167c0 -132 36 -167 88 -167z" />
    <glyph glyph-name="uni018C" unicode="&#x18c;" horiz-adv-x="594" 
d="M533 742v-742h-140l-8 62c-31 -44 -79 -79 -151 -79c-135 0 -202 112 -202 277c0 158 83 276 220 276c49 0 92 -20 123 -51v144h-209v113h367zM284 99c37 0 66 20 91 60v217c-24 28 -47 45 -82 45c-57 0 -97 -48 -97 -161c0 -126 36 -161 88 -161z" />
    <glyph glyph-name="uni01F3" unicode="&#x1f3;" horiz-adv-x="1048" 
d="M375 498v261l158 -17v-742h-140l-8 62c-31 -44 -79 -79 -151 -79c-135 0 -202 112 -202 284c0 164 86 281 217 281c52 0 95 -19 126 -50zM790 120h245l-14 -120h-414v112l241 300h-220v119h402v-111zM283 99c38 0 67 20 92 60v229c-24 28 -48 45 -83 45
c-56 0 -96 -48 -96 -167c0 -132 36 -167 87 -167z" />
    <glyph glyph-name="uni02A3" unicode="&#x2a3;" horiz-adv-x="977" 
d="M710 120h254l-15 -120h-414v109l250 303h-252v-412h-140l-8 62c-31 -44 -79 -79 -151 -79c-135 0 -202 112 -202 284c0 164 86 281 217 281c52 0 95 -19 126 -50v261l158 -17v-211h426v-111zM283 99c38 0 67 20 92 60v229c-24 28 -48 45 -83 45c-56 0 -96 -48 -96 -167
c0 -132 36 -167 87 -167z" />
    <glyph glyph-name="uni01C6" unicode="&#x1c6;" horiz-adv-x="1048" 
d="M875 611h-96l-142 137l57 65l133 -91l133 91l56 -65zM375 498v261l158 -17v-742h-140l-8 62c-31 -44 -79 -79 -151 -79c-135 0 -202 112 -202 284c0 164 86 281 217 281c52 0 95 -19 126 -50zM790 120h245l-14 -120h-414v112l241 300h-220v119h402v-111zM283 99
c38 0 67 20 92 60v229c-24 28 -48 45 -83 45c-56 0 -96 -48 -96 -167c0 -132 36 -167 87 -167z" />
    <glyph glyph-name="uni02A5" unicode="&#x2a5;" horiz-adv-x="1066" 
d="M959 266c70 0 124 -43 124 -118c0 -96 -67 -149 -211 -148c-6 -37 -5 -81 -5 -128h-91c0 45 2 90 6 128h-247v112l248 300h-250v-412h-140l-8 62c-31 -44 -79 -79 -151 -79c-135 0 -202 112 -202 284c0 164 86 281 217 281c52 0 95 -19 126 -50v261l158 -17v-211h425
v-105l-252 -306h93c28 107 85 146 160 146zM283 99c38 0 67 20 92 60v229c-24 28 -48 45 -83 45c-56 0 -96 -48 -96 -167c0 -132 36 -167 87 -167zM895 120c54 0 79 8 79 36c0 17 -9 27 -28 27c-25 0 -45 -16 -56 -63h5zM877 33v-1l-1 -2z" />
    <glyph glyph-name="e" unicode="e" horiz-adv-x="554" 
d="M525 276c0 -17 -1 -41 -3 -57h-328c10 -95 55 -121 120 -121c43 0 81 15 127 47l65 -88c-53 -42 -121 -74 -207 -74c-177 0 -267 114 -267 280c0 159 87 285 248 285c152 0 245 -100 245 -272zM370 314v7c-1 72 -23 122 -86 122c-53 0 -83 -33 -91 -129h177z" />
    <glyph glyph-name="eacute" unicode="&#xe9;" horiz-adv-x="554" 
d="M417 717l-236 -95l-44 81l218 132zM525 276c0 -17 -1 -41 -3 -57h-329c11 -95 56 -121 121 -121c43 0 81 15 127 47l65 -88c-53 -42 -121 -74 -207 -74c-177 0 -267 114 -267 280c0 159 87 285 248 285c152 0 245 -100 245 -272zM370 314v7c-1 72 -23 122 -86 122
c-53 0 -84 -34 -91 -129h177z" />
    <glyph glyph-name="eacute.loclHUN" horiz-adv-x="554" 
d="M423 763l-142 -162l-71 41l96 187zM525 276c0 -17 -1 -41 -3 -57h-329c11 -95 56 -121 121 -121c43 0 81 15 127 47l65 -88c-53 -42 -121 -74 -207 -74c-177 0 -267 114 -267 280c0 159 87 285 248 285c152 0 245 -100 245 -272zM370 314v7c-1 72 -23 122 -86 122
c-53 0 -84 -34 -91 -129h177z" />
    <glyph glyph-name="ebreve" unicode="&#x115;" horiz-adv-x="554" 
d="M282 632c-105 0 -164 77 -172 173l87 15c12 -48 39 -78 85 -78s73 30 86 78l87 -15c-8 -96 -68 -173 -173 -173zM525 276c0 -17 -1 -41 -3 -57h-329c11 -95 56 -121 121 -121c43 0 81 15 127 47l65 -88c-53 -42 -121 -74 -207 -74c-177 0 -267 114 -267 280
c0 159 87 285 248 285c152 0 245 -100 245 -272zM370 314v7c-1 72 -23 122 -86 122c-53 0 -84 -34 -91 -129h177z" />
    <glyph glyph-name="ecaron" unicode="&#x11b;" horiz-adv-x="554" 
d="M331 611h-96l-142 137l57 65l133 -91l133 91l56 -65zM525 276c0 -17 -1 -41 -3 -57h-329c11 -95 56 -121 121 -121c43 0 81 15 127 47l65 -88c-53 -42 -121 -74 -207 -74c-177 0 -267 114 -267 280c0 159 87 285 248 285c152 0 245 -100 245 -272zM370 314v7
c-1 72 -23 122 -86 122c-53 0 -84 -34 -91 -129h177z" />
    <glyph glyph-name="uni0229" unicode="&#x229;" horiz-adv-x="554" 
d="M525 276c0 -17 -1 -41 -3 -57h-329c11 -95 56 -121 121 -121c43 0 81 15 127 47l65 -88c-45 -36 -101 -64 -169 -72v-33c72 -8 104 -45 104 -99c0 -68 -58 -115 -149 -115c-47 0 -87 13 -112 30l36 73c20 -10 39 -17 64 -17c28 0 47 8 47 30c0 24 -28 34 -92 34l12 99
c-143 20 -215 127 -215 276c0 159 87 285 248 285c152 0 245 -100 245 -272zM370 314v7c-1 72 -23 122 -86 122c-53 0 -84 -34 -91 -129h177z" />
    <glyph glyph-name="ecircumflex" unicode="&#xea;" horiz-adv-x="554" 
d="M283 712l-134 -92l-56 65l141 137h97l141 -137l-56 -65zM525 276c0 -17 -1 -41 -3 -57h-329c11 -95 56 -121 121 -121c43 0 81 15 127 47l65 -88c-53 -42 -121 -74 -207 -74c-177 0 -267 114 -267 280c0 159 87 285 248 285c152 0 245 -100 245 -272zM370 314v7
c-1 72 -23 122 -86 122c-53 0 -84 -34 -91 -129h177z" />
    <glyph glyph-name="uni1EBF" unicode="&#x1ebf;" horiz-adv-x="554" 
d="M601 873l-158 -140l-59 53l131 171zM281 669l-133 -84l-57 65l142 129h96l141 -129l-56 -65zM280 548c152 0 245 -100 245 -272c0 -17 -1 -41 -3 -57h-329c11 -95 56 -121 121 -121c43 0 81 15 127 47l65 -88c-53 -42 -121 -74 -207 -74c-177 0 -267 114 -267 280
c0 159 87 285 248 285zM370 314v7c-1 72 -23 122 -86 122c-53 0 -84 -34 -91 -129h177z" />
    <glyph glyph-name="uni1EC7" unicode="&#x1ec7;" horiz-adv-x="554" 
d="M283 712l-134 -92l-56 65l141 137h97l141 -137l-56 -65zM525 276c0 -17 -1 -41 -3 -57h-329c11 -95 56 -121 121 -121c43 0 81 15 127 47l65 -88c-53 -42 -121 -74 -207 -74c-177 0 -267 114 -267 280c0 159 87 285 248 285c152 0 245 -100 245 -272zM370 314v7
c-1 72 -23 122 -86 122c-53 0 -84 -34 -91 -129h177zM294 -60c54 0 93 -39 93 -90s-39 -89 -93 -89c-56 0 -94 38 -94 89s38 90 94 90z" />
    <glyph glyph-name="uni1EC1" unicode="&#x1ec1;" horiz-adv-x="554" 
d="M179 786l-59 -53l-158 140l86 84zM148 585l-57 65l142 129h96l141 -129l-56 -65l-133 84zM525 276c0 -17 -1 -41 -3 -57h-329c11 -95 56 -121 121 -121c43 0 81 15 127 47l65 -88c-53 -42 -121 -74 -207 -74c-177 0 -267 114 -267 280c0 159 87 285 248 285
c152 0 245 -100 245 -272zM370 314v7c-1 72 -23 122 -86 122c-53 0 -84 -34 -91 -129h177z" />
    <glyph glyph-name="uni1EC3" unicode="&#x1ec3;" horiz-adv-x="554" 
d="M440 1001c81 0 124 -42 124 -102c0 -52 -30 -83 -84 -93v-53h-94v100c49 3 71 11 71 38c0 21 -16 31 -40 31s-40 -5 -60 -13l-26 65c28 17 62 27 109 27zM281 669l-133 -84l-57 65l142 129h96l141 -129l-56 -65zM280 548c152 0 245 -100 245 -272c0 -17 -1 -41 -3 -57
h-329c11 -95 56 -121 121 -121c43 0 81 15 127 47l65 -88c-53 -42 -121 -74 -207 -74c-177 0 -267 114 -267 280c0 159 87 285 248 285zM370 314v7c-1 72 -23 122 -86 122c-53 0 -84 -34 -91 -129h177z" />
    <glyph glyph-name="uni1EC5" unicode="&#x1ec5;" horiz-adv-x="554" 
d="M338 815c-28 0 -46 9 -66 22c-19 13 -31 21 -48 21c-24 0 -37 -14 -53 -42l-79 36c25 60 69 111 129 111c31 0 50 -10 70 -23c18 -12 30 -20 46 -20c23 0 36 14 53 41l79 -36c-26 -63 -71 -110 -131 -110zM148 581l-57 65l142 129h96l141 -129l-56 -65l-133 84zM525 276
c0 -17 -1 -41 -3 -57h-328c10 -95 55 -121 120 -121c43 0 81 15 127 47l65 -88c-53 -42 -121 -74 -207 -74c-177 0 -267 114 -267 280c0 159 87 285 248 285c152 0 245 -100 245 -272zM370 314v7c-1 72 -23 122 -86 122c-53 0 -83 -33 -91 -129h177z" />
    <glyph glyph-name="uni0205" unicode="&#x205;" horiz-adv-x="554" 
d="M163 860l97 -197l-81 -38l-122 182zM339 860l88 -197l-83 -33l-113 180zM525 276c0 -17 -1 -41 -3 -57h-328c10 -95 55 -121 120 -121c43 0 81 15 127 47l65 -88c-53 -42 -121 -74 -207 -74c-177 0 -267 114 -267 280c0 159 87 285 248 285c152 0 245 -100 245 -272z
M370 314v7c-1 72 -23 122 -86 122c-53 0 -83 -33 -91 -129h177z" />
    <glyph glyph-name="edieresis" unicode="&#xeb;" horiz-adv-x="554" 
d="M166 799c46 0 81 -35 81 -79s-35 -79 -81 -79c-45 0 -81 35 -81 79s36 79 81 79zM397 799c47 0 81 -35 81 -79s-34 -79 -81 -79c-44 0 -80 35 -80 79s36 79 80 79zM525 276c0 -17 -1 -41 -3 -57h-328c10 -95 55 -121 120 -121c43 0 81 15 127 47l65 -88
c-53 -42 -121 -74 -207 -74c-177 0 -267 114 -267 280c0 159 87 285 248 285c152 0 245 -100 245 -272zM370 314v7c-1 72 -23 122 -86 122c-53 0 -83 -33 -91 -129h177z" />
    <glyph glyph-name="edotaccent" unicode="&#x117;" horiz-adv-x="554" 
d="M282 811c55 0 94 -39 94 -90s-39 -90 -94 -90s-93 39 -93 90s38 90 93 90zM525 276c0 -17 -1 -41 -3 -57h-328c10 -95 55 -121 120 -121c43 0 81 15 127 47l65 -88c-53 -42 -121 -74 -207 -74c-177 0 -267 114 -267 280c0 159 87 285 248 285c152 0 245 -100 245 -272z
M370 314v7c-1 72 -23 122 -86 122c-53 0 -83 -33 -91 -129h177z" />
    <glyph glyph-name="uni1EB9" unicode="&#x1eb9;" horiz-adv-x="554" 
d="M525 276c0 -17 -1 -41 -3 -57h-328c10 -95 55 -121 120 -121c43 0 81 15 127 47l65 -88c-53 -42 -121 -74 -207 -74c-177 0 -267 114 -267 280c0 159 87 285 248 285c152 0 245 -100 245 -272zM370 314v7c-1 72 -23 122 -86 122c-53 0 -83 -33 -91 -129h177zM294 -239
c-56 0 -94 38 -94 89s38 90 94 90c54 0 93 -39 93 -90s-39 -89 -93 -89z" />
    <glyph glyph-name="egrave" unicode="&#xe8;" horiz-adv-x="554" 
d="M215 835l218 -132l-44 -81l-236 95zM525 276c0 -17 -1 -41 -3 -57h-328c10 -95 55 -121 120 -121c43 0 81 15 127 47l65 -88c-53 -42 -121 -74 -207 -74c-177 0 -267 114 -267 280c0 159 87 285 248 285c152 0 245 -100 245 -272zM370 314v7c-1 72 -23 122 -86 122
c-53 0 -83 -33 -91 -129h177z" />
    <glyph glyph-name="uni1EBB" unicode="&#x1ebb;" horiz-adv-x="554" 
d="M235 605v99c49 3 71 12 71 38c0 21 -16 31 -40 31c-23 0 -40 -5 -60 -13l-26 66c28 16 62 26 109 26c81 0 124 -42 124 -101c0 -52 -30 -84 -84 -94v-52h-94zM525 276c0 -17 -1 -41 -3 -57h-328c10 -95 55 -121 120 -121c43 0 81 15 127 47l65 -88
c-53 -42 -121 -74 -207 -74c-177 0 -267 114 -267 280c0 159 87 285 248 285c152 0 245 -100 245 -272zM370 314v7c-1 72 -23 122 -86 122c-53 0 -83 -33 -91 -129h177z" />
    <glyph glyph-name="uni0207" unicode="&#x207;" horiz-adv-x="554" 
d="M282 789c105 0 165 -77 173 -172l-87 -15c-13 48 -40 77 -86 77s-73 -29 -85 -77l-87 15c8 95 67 172 172 172zM525 276c0 -17 -1 -41 -3 -57h-328c10 -95 55 -121 120 -121c43 0 81 15 127 47l65 -88c-53 -42 -121 -74 -207 -74c-177 0 -267 114 -267 280
c0 159 87 285 248 285c152 0 245 -100 245 -272zM370 314v7c-1 72 -23 122 -86 122c-53 0 -83 -33 -91 -129h177z" />
    <glyph glyph-name="emacron" unicode="&#x113;" horiz-adv-x="554" 
d="M435 655h-305v110h305v-110zM525 276c0 -17 -1 -41 -3 -57h-328c10 -95 55 -121 120 -121c43 0 81 15 127 47l65 -88c-53 -42 -121 -74 -207 -74c-177 0 -267 114 -267 280c0 159 87 285 248 285c152 0 245 -100 245 -272zM370 314v7c-1 72 -23 122 -86 122
c-53 0 -83 -33 -91 -129h177z" />
    <glyph glyph-name="eogonek" unicode="&#x119;" horiz-adv-x="554" 
d="M525 276c0 -17 -1 -41 -3 -57h-328c10 -95 55 -121 120 -121c43 0 81 15 127 47l65 -88c-31 -25 -67 -46 -109 -59c-75 -33 -91 -66 -91 -91c0 -30 17 -46 53 -46c20 0 38 3 61 8l-11 -98c-21 -5 -43 -8 -70 -8c-85 0 -147 45 -147 117c0 46 26 81 68 105
c-151 16 -228 125 -228 278c0 159 87 285 248 285c152 0 245 -100 245 -272zM370 314v7c-1 72 -23 122 -86 122c-53 0 -83 -33 -91 -129h177z" />
    <glyph glyph-name="uni025B" unicode="&#x25b;" horiz-adv-x="477" 
d="M260 548c78 0 143 -19 199 -60l-65 -82c-37 21 -70 33 -113 33c-44 0 -72 -20 -72 -56c0 -35 25 -59 74 -59h67l-15 -102h-59c-61 0 -84 -22 -84 -62c0 -39 29 -64 88 -64c44 0 81 12 128 40l66 -89c-53 -40 -127 -64 -216 -64c-132 0 -229 56 -229 164
c0 81 49 125 142 136c-83 16 -122 57 -122 119c0 91 85 146 211 146z" />
    <glyph glyph-name="uni029A" unicode="&#x29a;" horiz-adv-x="570" 
d="M272 -17c-144 0 -243 59 -243 170c0 78 50 117 142 130c-77 20 -116 58 -116 117c0 91 90 148 218 148c168 0 265 -112 265 -282c0 -179 -93 -283 -266 -283zM273 96c81 0 107 49 107 170s-33 173 -103 173c-40 0 -66 -20 -66 -55c0 -40 30 -60 78 -60h13l9 -102h-34
c-55 0 -88 -15 -88 -59c0 -46 31 -67 84 -67z" />
    <glyph glyph-name="uni025C" unicode="&#x25c;" horiz-adv-x="494" 
d="M231 548c115 0 208 -54 208 -147c0 -60 -39 -98 -116 -118c92 -13 142 -52 142 -130c0 -114 -103 -170 -246 -170c-90 0 -160 23 -216 64l74 88c48 -29 85 -39 137 -39c54 0 88 19 88 66c0 43 -34 60 -92 60h-83l9 102h62c51 0 82 20 82 61c0 38 -30 54 -71 54
c-47 0 -81 -13 -117 -36l-73 83c59 41 125 62 212 62z" />
    <glyph glyph-name="uni025E" unicode="&#x25e;" horiz-adv-x="570" 
d="M298 -17c-173 0 -266 104 -266 283c0 170 97 282 265 282c128 0 218 -57 218 -148c0 -59 -39 -97 -116 -117c92 -13 142 -52 142 -130c0 -111 -99 -170 -243 -170zM297 96c53 0 84 21 84 67c0 44 -33 59 -88 59h-34l9 102h13c48 0 78 20 78 60c0 35 -26 55 -66 55
c-70 0 -103 -52 -103 -173s26 -170 107 -170z" />
    <glyph glyph-name="uni025D" unicode="&#x25d;" horiz-adv-x="758" 
d="M727 433l44 -89c-28 -19 -69 -37 -125 -37c-95 0 -147 47 -157 121l-1 6l-49 -28v-5c0 -60 -39 -98 -116 -118c92 -13 142 -52 142 -130c0 -114 -103 -170 -246 -170c-90 0 -160 23 -216 64l74 88c48 -29 85 -39 137 -39c54 0 88 19 88 66c0 43 -34 60 -92 60h-83l9 102
h62c51 0 82 20 82 61c0 38 -30 54 -71 54c-47 0 -81 -13 -117 -36l-73 83c59 41 125 62 212 62c71 0 134 -21 171 -58l79 41h131v-59c0 -39 21 -55 52 -55c27 0 43 7 63 16z" />
    <glyph glyph-name="uni0258" unicode="&#x258;" horiz-adv-x="554" 
d="M274 548c171 0 248 -118 248 -285c0 -166 -90 -280 -267 -280c-86 0 -154 32 -207 74l65 88c46 -32 84 -47 131 -47c65 0 107 26 117 121h-329c-2 16 -3 40 -3 57c0 172 95 272 245 272zM184 321v-7h178c-6 100 -32 129 -89 129c-65 0 -88 -50 -89 -122z" />
    <glyph glyph-name="uni0283" unicode="&#x283;" horiz-adv-x="282" 
d="M250 759c61 0 104 -18 135 -38l-46 -98c-23 12 -41 19 -67 19c-34 0 -52 -18 -52 -61v-612c0 -127 -79 -191 -196 -191c-66 0 -110 19 -142 43l53 92c24 -12 41 -20 70 -20c36 0 57 20 57 61v622c0 108 65 183 188 183z" />
    <glyph glyph-name="uni0286" unicode="&#x286;" horiz-adv-x="339" 
d="M277 30c0 -12 0 -23 -1 -34c38 -11 68 -23 101 -40l-28 -66c-25 11 -56 22 -84 31c-25 -97 -90 -143 -198 -143c-95 0 -148 45 -148 118c0 83 62 129 157 129c14 0 30 -1 43 -2v553c0 108 64 183 188 183c61 0 104 -18 135 -38l-46 -98c-23 12 -41 19 -68 19
c-34 0 -51 -18 -51 -61v-551zM57 -139c40 0 58 24 61 86c-11 1 -26 2 -42 2c-42 0 -63 -16 -63 -48c0 -26 15 -40 44 -40z" />
    <glyph glyph-name="uni01AA" unicode="&#x1aa;" horiz-adv-x="403" 
d="M467 -87l54 -92c-32 -24 -76 -43 -142 -43c-117 0 -196 64 -196 191v460c-17 -6 -38 -11 -62 -11c-92 0 -158 67 -158 169c0 99 70 172 184 172c122 0 194 -73 194 -186v-619c0 -41 21 -61 56 -61c30 0 47 8 70 20zM150 527c11 0 22 2 33 5v64c0 35 -14 53 -41 53
c-28 0 -42 -20 -42 -59c0 -44 17 -63 50 -63z" />
    <glyph glyph-name="uni0285" unicode="&#x285;" horiz-adv-x="485" 
d="M441 118l53 -93c-32 -23 -76 -42 -142 -42c-117 0 -196 64 -196 190v197c0 43 -18 62 -52 62c-26 0 -44 -7 -67 -19l-46 98c31 20 74 37 135 37c123 0 188 -75 188 -182v-207c0 -42 21 -61 56 -61c30 0 47 8 71 20z" />
    <glyph glyph-name="uni0247" unicode="&#x247;" horiz-adv-x="554" 
d="M522 222h-230l-31 -118c15 -4 33 -6 53 -6c43 0 81 15 127 47l65 -88c-53 -42 -121 -74 -207 -74c-25 0 -48 2 -69 6l-17 -63l-53 13l18 66c-97 41 -146 136 -146 258c0 159 87 285 248 285c15 0 29 -1 42 -3l15 56l53 -14l-15 -55c95 -34 150 -124 150 -256
c0 -17 -1 -38 -3 -54zM284 446c-65 0 -96 -37 -103 -135h78l36 135h-11zM385 318c0 49 -10 88 -38 110l-31 -117h69v7zM212 134l24 88h-55c4 -41 15 -69 31 -88z" />
    <glyph glyph-name="uni1EBD" unicode="&#x1ebd;" horiz-adv-x="554" 
d="M341 635c-28 0 -47 8 -67 23c-18 13 -30 22 -47 22c-24 0 -37 -16 -53 -44l-79 38c25 64 69 118 129 118c31 0 49 -10 70 -24c18 -13 30 -21 46 -21c22 0 36 15 52 44l79 -39c-26 -67 -71 -117 -130 -117zM525 276c0 -17 -1 -41 -3 -57h-328c10 -95 55 -121 120 -121
c43 0 81 15 127 47l65 -88c-53 -42 -121 -74 -207 -74c-177 0 -267 114 -267 280c0 159 87 285 248 285c152 0 245 -100 245 -272zM370 314v7c-1 72 -23 122 -86 122c-53 0 -83 -33 -91 -129h177z" />
    <glyph glyph-name="uni01DD" unicode="&#x1dd;" horiz-adv-x="557" 
d="M270 548c176 0 255 -115 255 -282c0 -161 -88 -283 -251 -283c-148 0 -245 100 -245 272c0 17 1 40 3 57h340c-5 86 -42 124 -107 124c-48 0 -88 -12 -135 -44l-65 88c52 42 117 68 205 68zM274 95c59 0 93 32 98 122h-194v-7c1 -71 34 -115 96 -115z" />
    <glyph glyph-name="uni0259" unicode="&#x259;" horiz-adv-x="557" 
d="M270 548c176 0 255 -115 255 -282c0 -161 -88 -283 -251 -283c-148 0 -245 100 -245 272c0 17 1 40 3 57h340c-5 86 -42 124 -107 124c-48 0 -88 -12 -135 -44l-65 88c52 42 117 68 205 68zM274 95c59 0 93 32 98 122h-194v-7c1 -71 34 -115 96 -115z" />
    <glyph glyph-name="uni025A" unicode="&#x25a;" horiz-adv-x="826" 
d="M795 433l44 -89c-28 -19 -69 -37 -125 -37c-95 0 -147 47 -157 121l-1 6l-54 -31c16 -40 23 -86 23 -137c0 -161 -88 -283 -251 -283c-148 0 -245 100 -245 272c0 17 1 40 3 57h340c-5 86 -42 124 -107 124c-48 0 -88 -12 -135 -44l-65 88c52 42 117 68 205 68
c81 0 142 -24 183 -67l96 50h131v-59c0 -39 21 -55 52 -55c27 0 43 7 63 16zM274 95c59 0 93 32 98 122h-194v-7c1 -71 34 -115 96 -115z" />
    <glyph glyph-name="uni0292" unicode="&#x292;" horiz-adv-x="505" 
d="M276 213c137 -9 216 -74 216 -204c0 -132 -100 -231 -269 -231c-108 0 -182 39 -235 103l83 80c47 -43 87 -62 143 -62c69 0 115 38 115 120c0 74 -43 101 -126 101h-92v92l171 201h-255v118h433v-108z" />
    <glyph glyph-name="uni01EF" unicode="&#x1ef;" horiz-adv-x="505" 
d="M292 611h-96l-142 137l57 65l133 -91l133 91l56 -65zM276 213c137 -9 216 -74 216 -204c0 -132 -100 -231 -269 -231c-108 0 -182 39 -235 103l83 80c47 -43 87 -62 143 -62c69 0 115 38 115 120c0 74 -43 101 -126 101h-92v92l171 201h-255v118h433v-108z" />
    <glyph glyph-name="uni0293" unicode="&#x293;" horiz-adv-x="505" 
d="M492 12c0 -102 -56 -183 -170 -217l25 -55l-79 -30l-32 70c-14 -1 -28 -2 -43 -2c-136 0 -218 55 -218 155c0 78 55 123 127 123c75 0 116 -36 160 -138l4 -8c44 17 63 53 63 111c0 79 -43 105 -126 105h-92v92l172 195h-256v118h433v-108l-184 -205
c137 -8 216 -73 216 -206zM84 -60c0 -30 24 -41 101 -41c-25 54 -42 72 -69 72c-20 0 -32 -12 -32 -31z" />
    <glyph glyph-name="uni01B9" unicode="&#x1b9;" horiz-adv-x="505" 
d="M436 -40l81 -79c-54 -64 -128 -103 -238 -103c-166 0 -266 98 -266 225c0 128 80 201 216 209l-184 211v108h432v-118h-256l173 -204v-89h-93c-83 0 -125 -34 -125 -108c0 -75 45 -113 113 -113c57 0 98 18 147 61z" />
    <glyph glyph-name="uni01BA" unicode="&#x1ba;" horiz-adv-x="509" 
d="M187 -222c-97 30 -160 80 -160 152c0 74 56 114 172 135c88 15 125 32 125 74c0 35 -26 49 -80 49h-132v86l157 145h-247v112h431v-102l-172 -149h26c113 0 180 -56 180 -146c0 -111 -91 -154 -199 -172c-95 -16 -114 -28 -114 -50c0 -18 18 -32 51 -47z" />
    <glyph glyph-name="f" unicode="f" horiz-adv-x="356" 
d="M305 642c-46 0 -64 -20 -64 -70v-41h125l-17 -110h-108v-421h-158v421h-80v110h80v47c0 102 67 181 203 181c55 0 106 -14 145 -34l-43 -103c-30 15 -60 20 -83 20z" />
    <glyph glyph-name="f_short" horiz-adv-x="356" 
d="M305 642c-46 0 -64 -20 -64 -70v-41h89l-17 -110h-72v-421h-158v421h-80v110h80v47c0 102 67 181 203 181c31 0 61 -5 90 -13l-28 -109c-16 4 -31 5 -43 5z" />
    <glyph glyph-name="uni1E1F" unicode="&#x1e1f;" horiz-adv-x="356" 
d="M266 806c-55 0 -93 39 -93 90s38 90 93 90s94 -39 94 -90s-39 -90 -94 -90zM305 642c-46 0 -64 -20 -64 -70v-41h125l-17 -110h-108v-421h-158v421h-80v110h80v47c0 102 67 181 203 181c55 0 106 -14 145 -34l-43 -103c-30 15 -60 20 -83 20z" />
    <glyph glyph-name="fdotaccent_short" horiz-adv-x="356" 
d="M266 806c-55 0 -93 39 -93 90s38 90 93 90s94 -39 94 -90s-39 -90 -94 -90zM305 642c-46 0 -64 -20 -64 -70v-41h89l-17 -110h-72v-421h-158v421h-80v110h80v47c0 102 67 181 203 181c31 0 61 -5 90 -13l-28 -109c-16 4 -31 5 -43 5z" />
    <glyph glyph-name="uni02A9" unicode="&#x2a9;" horiz-adv-x="879" 
d="M824 1h1v-32c0 -127 -79 -191 -196 -191c-66 0 -110 19 -142 43l53 92c24 -12 41 -20 71 -20c35 0 56 20 56 61v46h-1v361c0 56 -20 71 -50 71c-35 0 -65 -25 -92 -69v-363h-158v421h-125v-421h-158v421h-80v110h80v47c0 102 67 181 203 181c55 0 106 -14 145 -34
l-43 -103c-30 15 -60 20 -83 20c-46 0 -64 -20 -64 -70v-41h262l12 -64c44 53 95 81 162 81c92 0 147 -59 147 -160v-387z" />
    <glyph glyph-name="g" unicode="g" horiz-adv-x="551" 
d="M514 617l37 -117c-37 -15 -86 -21 -153 -21c67 -29 100 -68 100 -137c0 -103 -85 -178 -223 -178c-22 0 -42 2 -61 6c-11 -6 -17 -18 -17 -30c0 -16 7 -32 58 -32h80c124 0 203 -65 203 -154c0 -109 -96 -176 -278 -176c-201 0 -254 66 -254 171h142
c0 -46 20 -66 116 -66c93 0 115 26 115 60c0 31 -23 52 -76 52h-77c-116 0 -163 48 -163 105c0 39 25 78 63 102c-68 36 -95 83 -95 152c0 120 94 194 233 194c118 -3 186 31 250 69zM268 444c-49 0 -80 -33 -80 -88c0 -58 32 -90 80 -90c52 0 80 31 80 92
c0 59 -27 86 -80 86z" />
    <glyph glyph-name="g.map" horiz-adv-x="587" 
d="M392 531h137v-511c0 -163 -98 -242 -264 -242c-94 0 -165 28 -205 52l48 98c34 -18 87 -34 143 -34c83 0 120 32 120 107v67c-30 -37 -74 -65 -138 -65c-136 0 -204 112 -204 274c0 154 86 271 213 271c58 0 104 -22 141 -63zM281 119c36 0 65 19 90 58v211
c-24 28 -51 45 -86 45c-57 0 -93 -48 -93 -157c0 -122 36 -157 89 -157z" />
    <glyph glyph-name="g.ss05" horiz-adv-x="587" 
d="M392 531h137v-511c0 -163 -98 -242 -264 -242c-94 0 -165 28 -205 52l48 98c34 -18 87 -34 143 -34c83 0 120 32 120 107v67c-30 -37 -74 -65 -138 -65c-136 0 -204 112 -204 274c0 154 86 271 213 271c58 0 104 -22 141 -63zM281 119c36 0 65 19 90 58v211
c-24 28 -51 45 -86 45c-57 0 -93 -48 -93 -157c0 -122 36 -157 89 -157z" />
    <glyph glyph-name="uni01F5" unicode="&#x1f5;" horiz-adv-x="551" 
d="M347 835l62 -118l-236 -95l-44 81zM514 617l37 -117c-37 -15 -86 -21 -153 -21c67 -29 100 -68 100 -137c0 -103 -85 -178 -223 -178c-22 0 -42 2 -61 6c-11 -6 -17 -18 -17 -30c0 -16 7 -32 58 -32h80c124 0 203 -65 203 -154c0 -109 -96 -176 -278 -176
c-201 0 -254 66 -254 171h142c0 -46 20 -66 116 -66c93 0 115 26 115 60c0 31 -23 52 -76 52h-77c-116 0 -163 48 -163 105c0 39 25 78 63 102c-68 36 -95 83 -95 152c0 120 94 194 233 194c118 -3 186 31 250 69zM268 444c-49 0 -80 -33 -80 -88c0 -58 32 -90 80 -90
c52 0 80 31 80 92c0 59 -27 86 -80 86z" />
    <glyph glyph-name="uni0263" unicode="&#x263;" horiz-adv-x="518" 
d="M524 531l-186 -449c47 -73 70 -122 70 -182c0 -73 -45 -122 -146 -122s-147 48 -147 121c0 53 20 102 70 182l-191 450h168l100 -348l99 348h163zM291 -93c0 27 -12 53 -29 88c-17 -35 -29 -62 -29 -88c0 -20 10 -31 29 -31s29 12 29 31z" />
    <glyph glyph-name="gbreve" unicode="&#x11f;" horiz-adv-x="551" 
d="M275 632c-105 0 -164 77 -172 173l87 15c12 -48 39 -78 85 -78s73 30 86 78l87 -15c-8 -96 -68 -173 -173 -173zM514 617l37 -117c-37 -15 -86 -21 -153 -21c67 -29 100 -68 100 -137c0 -103 -85 -178 -223 -178c-22 0 -42 2 -61 6c-11 -6 -17 -18 -17 -30
c0 -16 7 -32 58 -32h80c124 0 203 -65 203 -154c0 -109 -96 -176 -278 -176c-201 0 -254 66 -254 171h142c0 -46 20 -66 116 -66c93 0 115 26 115 60c0 31 -23 52 -76 52h-77c-116 0 -163 48 -163 105c0 39 25 78 63 102c-68 36 -95 83 -95 152c0 120 94 194 233 194
c118 -3 186 31 250 69zM268 444c-49 0 -80 -33 -80 -88c0 -58 32 -90 80 -90c52 0 80 31 80 92c0 59 -27 86 -80 86z" />
    <glyph glyph-name="gcaron" unicode="&#x1e7;" horiz-adv-x="551" 
d="M409 813l56 -65l-141 -137h-96l-142 137l57 65l133 -91zM514 617l37 -117c-37 -15 -86 -21 -153 -21c67 -29 100 -68 100 -137c0 -103 -85 -178 -223 -178c-22 0 -42 2 -61 6c-11 -6 -17 -18 -17 -30c0 -16 7 -32 58 -32h80c124 0 203 -65 203 -154
c0 -109 -96 -176 -278 -176c-201 0 -254 66 -254 171h142c0 -46 20 -66 116 -66c93 0 115 26 115 60c0 31 -23 52 -76 52h-77c-116 0 -163 48 -163 105c0 39 25 78 63 102c-68 36 -95 83 -95 152c0 120 94 194 233 194c118 -3 186 31 250 69zM268 444c-49 0 -80 -33 -80 -88
c0 -58 32 -90 80 -90c52 0 80 31 80 92c0 59 -27 86 -80 86z" />
    <glyph glyph-name="gcircumflex" unicode="&#x11d;" horiz-adv-x="551" 
d="M142 620l-56 65l141 137h97l141 -137l-56 -65l-133 92zM514 617l37 -117c-37 -15 -86 -21 -153 -21c67 -29 100 -68 100 -137c0 -103 -85 -178 -223 -178c-22 0 -42 2 -61 6c-11 -6 -17 -18 -17 -30c0 -16 7 -32 58 -32h80c124 0 203 -65 203 -154
c0 -109 -96 -176 -278 -176c-201 0 -254 66 -254 171h142c0 -46 20 -66 116 -66c93 0 115 26 115 60c0 31 -23 52 -76 52h-77c-116 0 -163 48 -163 105c0 39 25 78 63 102c-68 36 -95 83 -95 152c0 120 94 194 233 194c118 -3 186 31 250 69zM268 444c-49 0 -80 -33 -80 -88
c0 -58 32 -90 80 -90c52 0 80 31 80 92c0 59 -27 86 -80 86z" />
    <glyph glyph-name="uni0123" unicode="&#x123;" horiz-adv-x="551" 
d="M272 577c-46 0 -79 33 -79 78c0 25 8 45 27 83l46 96h79l-27 -115c19 -15 33 -36 33 -64c0 -43 -34 -78 -79 -78zM514 617l37 -117c-37 -15 -86 -21 -153 -21c67 -29 100 -68 100 -137c0 -103 -85 -178 -223 -178c-22 0 -42 2 -61 6c-11 -6 -17 -18 -17 -30
c0 -16 7 -32 58 -32h80c124 0 203 -65 203 -154c0 -109 -96 -176 -278 -176c-201 0 -254 66 -254 171h142c0 -46 20 -66 116 -66c93 0 115 26 115 60c0 31 -23 52 -76 52h-77c-116 0 -163 48 -163 105c0 39 25 78 63 102c-68 36 -95 83 -95 152c0 120 94 194 233 194
c118 -3 186 31 250 69zM268 444c-49 0 -80 -33 -80 -88c0 -58 32 -90 80 -90c52 0 80 31 80 92c0 59 -27 86 -80 86z" />
    <glyph glyph-name="gdotaccent" unicode="&#x121;" horiz-adv-x="551" 
d="M275 811c55 0 94 -39 94 -90s-39 -90 -94 -90s-93 39 -93 90s38 90 93 90zM514 617l37 -117c-37 -15 -86 -21 -153 -21c67 -29 100 -68 100 -137c0 -103 -85 -178 -223 -178c-22 0 -42 2 -61 6c-11 -6 -17 -18 -17 -30c0 -16 7 -32 58 -32h80c124 0 203 -65 203 -154
c0 -109 -96 -176 -278 -176c-201 0 -254 66 -254 171h142c0 -46 20 -66 116 -66c93 0 115 26 115 60c0 31 -23 52 -76 52h-77c-116 0 -163 48 -163 105c0 39 25 78 63 102c-68 36 -95 83 -95 152c0 120 94 194 233 194c118 -3 186 31 250 69zM268 444c-49 0 -80 -33 -80 -88
c0 -58 32 -90 80 -90c52 0 80 31 80 92c0 59 -27 86 -80 86z" />
    <glyph glyph-name="uni0260" unicode="&#x260;" horiz-adv-x="591" 
d="M560 759c60 0 103 -18 135 -38l-46 -98c-23 12 -42 19 -68 19c-34 0 -52 -18 -52 -61v-565c0 -163 -93 -238 -256 -238c-97 0 -156 26 -193 50l48 97c32 -16 74 -32 132 -32c80 0 111 33 111 103v72c-30 -37 -76 -65 -141 -65c-135 0 -201 112 -201 274
c0 154 83 271 220 271c45 0 87 -18 122 -50v78c0 108 65 183 189 183zM281 119c36 0 65 19 90 58v212c-24 27 -48 44 -82 44c-57 0 -97 -48 -97 -157c0 -122 36 -157 89 -157z" />
    <glyph glyph-name="uni01BE" unicode="&#x1be;" horiz-adv-x="512" 
d="M331 433c87 -26 149 -88 149 -211c0 -144 -99 -239 -248 -239c-92 0 -164 32 -227 92l78 80c42 -37 80 -55 128 -55c67 0 107 43 107 123c0 86 -38 133 -121 154l-56 12v140h-70v93h70v120l158 16v-136h97v-93h-97v-89z" />
    <glyph glyph-name="uni0294" unicode="&#x294;" horiz-adv-x="478" 
d="M130 0v354l43 13c79 24 123 66 123 152c0 80 -40 123 -107 123c-48 0 -86 -18 -127 -55l-78 80c63 61 135 92 228 92c149 0 247 -93 247 -237c0 -125 -66 -179 -152 -212l-19 -8v-302h-158z" />
    <glyph glyph-name="uni0296" unicode="&#x296;" horiz-adv-x="512" 
d="M141 742l158 16v-318l32 -7c87 -26 149 -88 149 -211c0 -144 -99 -239 -248 -239c-92 0 -164 32 -227 92l78 80c42 -37 80 -55 128 -55c67 0 107 43 107 123c0 86 -38 133 -121 154l-56 12v353z" />
    <glyph glyph-name="uni0295" unicode="&#x295;" horiz-adv-x="478" 
d="M348 0h-158v302l-19 8c-86 33 -152 87 -152 212c0 144 105 237 252 237c92 0 161 -32 223 -92l-78 -80c-39 36 -75 55 -125 55c-66 0 -109 -44 -109 -124c0 -85 44 -127 123 -151l43 -13v-354z" />
    <glyph glyph-name="uni0242" unicode="&#x242;" horiz-adv-x="463" 
d="M111 0v203l52 14c68 19 108 53 108 118c0 58 -34 95 -87 95c-48 0 -77 -17 -112 -46l-76 80c55 53 117 84 204 84c143 0 235 -87 235 -211c0 -102 -56 -151 -138 -178l-28 -9v-150h-158z" />
    <glyph glyph-name="uni02A1" unicode="&#x2a1;" horiz-adv-x="478" 
d="M307 310l-19 -8v-80h97v-93h-97v-129h-158v129h-67v93h67v132l43 13c79 24 123 66 123 152c0 80 -40 123 -107 123c-48 0 -86 -18 -127 -55l-78 80c63 61 135 92 228 92c149 0 247 -93 247 -237c0 -125 -66 -179 -152 -212z" />
    <glyph glyph-name="uni02A2" unicode="&#x2a2;" horiz-adv-x="478" 
d="M291 642c-66 0 -109 -44 -109 -124c0 -85 44 -127 123 -151l43 -13v-132h67v-93h-67v-129h-158v129h-97v93h97v80l-19 8c-86 33 -152 87 -152 212c0 144 105 237 252 237c92 0 161 -32 223 -92l-78 -80c-39 36 -75 55 -125 55z" />
    <glyph glyph-name="uni0261" unicode="&#x261;" horiz-adv-x="587" 
d="M392 531h137v-511c0 -163 -98 -242 -264 -242c-94 0 -165 28 -205 52l48 98c34 -18 87 -34 143 -34c83 0 120 32 120 107v67c-30 -37 -74 -65 -138 -65c-136 0 -204 112 -204 274c0 154 86 271 213 271c58 0 104 -22 141 -63zM281 119c36 0 65 19 90 58v211
c-24 28 -51 45 -86 45c-57 0 -93 -48 -93 -157c0 -122 36 -157 89 -157z" />
    <glyph glyph-name="uni01E5" unicode="&#x1e5;" horiz-adv-x="551" 
d="M587 -20v-67h-54c-22 -85 -115 -135 -273 -135c-201 0 -254 66 -254 171h142c0 -53 20 -72 116 -72c73 0 112 11 128 36h-124v67h123c-14 20 -45 30 -88 30h-77c-116 0 -163 43 -163 95c0 40 25 73 63 97c-68 36 -95 83 -95 152c0 120 94 194 233 194
c118 -3 186 31 250 69l37 -117c-37 -15 -86 -21 -153 -21c67 -29 100 -68 100 -137c0 -103 -85 -178 -223 -178c-22 0 -42 2 -61 6c-11 -6 -17 -18 -17 -30c0 -16 7 -29 58 -29h80c112 0 187 -52 201 -131h51zM268 444c-49 0 -80 -33 -80 -88c0 -58 32 -90 80 -90
c52 0 80 31 80 92c0 59 -27 86 -80 86z" />
    <glyph glyph-name="uni021D" unicode="&#x21d;" horiz-adv-x="477" 
d="M214 548c115 0 208 -54 208 -152c0 -65 -38 -103 -116 -123c92 -5 143 -47 143 -118c0 -116 -140 -212 -390 -262l-15 104c167 51 240 94 241 162c0 37 -25 53 -70 53h-95l10 102h51c53 0 82 20 82 66c0 42 -30 59 -71 59c-47 0 -81 -13 -117 -35l-72 82
c58 41 125 62 211 62z" />
    <glyph glyph-name="h" unicode="h" horiz-adv-x="573" 
d="M372 548c91 0 147 -59 147 -160v-388h-158v361c0 56 -20 71 -50 71c-35 0 -65 -25 -92 -68v-364h-158v742l158 16v-284c43 49 90 74 153 74z" />
    <glyph glyph-name="hbar" unicode="&#x127;" horiz-adv-x="582" 
d="M380 548c92 0 148 -59 148 -160v-388h-158v361c0 56 -21 71 -51 71c-34 0 -64 -25 -92 -68v-364h-158v596h-61v92h61v54l158 16v-70h133v-92h-133v-122c43 49 91 74 153 74z" />
    <glyph glyph-name="uni021F" unicode="&#x21f;" horiz-adv-x="573" 
d="M335 799h-96l-142 129l57 65l133 -84l133 84l56 -65zM372 548c91 0 147 -59 147 -160v-388h-158v361c0 56 -20 71 -50 71c-35 0 -65 -25 -92 -68v-364h-158v742l158 16v-284c43 49 90 74 153 74z" />
    <glyph glyph-name="hcircumflex" unicode="&#x125;" horiz-adv-x="573" 
d="M287 888l-133 -84l-57 65l142 129h96l141 -129l-56 -65zM372 548c91 0 147 -59 147 -160v-388h-158v361c0 56 -20 71 -50 71c-35 0 -65 -25 -92 -68v-364h-158v742l158 16v-284c43 49 90 74 153 74z" />
    <glyph glyph-name="uni1E25" unicode="&#x1e25;" horiz-adv-x="573" 
d="M372 548c91 0 147 -59 147 -160v-388h-158v361c0 56 -20 71 -50 71c-35 0 -65 -25 -92 -68v-364h-158v742l158 16v-284c43 49 90 74 153 74zM291 -60c54 0 93 -39 93 -90s-39 -89 -93 -89c-56 0 -94 38 -94 89s38 90 94 90z" />
    <glyph glyph-name="uni0267" unicode="&#x267;" horiz-adv-x="575" 
d="M519 1h1v-32c0 -127 -79 -191 -196 -191c-66 0 -110 19 -142 43l53 92c24 -12 41 -20 71 -20c35 0 56 20 56 61v46h-1v361c0 56 -20 71 -50 71c-35 0 -65 -25 -92 -68v-364h-158v578c0 102 67 181 203 181c55 0 106 -14 145 -34l-43 -101c-30 13 -60 18 -83 18
c-46 0 -64 -20 -64 -70v-98c43 49 90 74 153 74c91 0 147 -59 147 -160v-387z" />
    <glyph glyph-name="uni0266" unicode="&#x266;" horiz-adv-x="573" 
d="M372 548c91 0 147 -59 147 -160v-388h-158v361c0 56 -20 71 -50 71c-35 0 -65 -25 -92 -68v-364h-158v578c0 102 67 181 203 181c55 0 106 -14 145 -34l-43 -101c-30 13 -60 18 -83 18c-46 0 -64 -20 -64 -70v-98c43 49 90 74 153 74z" />
    <glyph glyph-name="uni0265" unicode="&#x265;" horiz-adv-x="573" 
d="M355 531h158v-753l-158 17v262c-43 -49 -91 -74 -153 -74c-92 0 -148 60 -148 160v388h158v-360c0 -56 21 -71 51 -71c34 0 64 24 92 68v363z" />
    <glyph glyph-name="uni02AE" unicode="&#x2ae;" horiz-adv-x="696" 
d="M478 531h158v-753l-158 17v262c-43 -49 -91 -74 -153 -74c-92 0 -148 60 -148 160v231c0 41 -21 61 -56 61c-30 0 -47 -8 -71 -20l-53 92c32 24 76 43 142 43c117 0 196 -64 196 -191v-188c0 -56 21 -71 51 -71c34 0 64 24 92 68v363z" />
    <glyph glyph-name="uni02AF" unicode="&#x2af;" horiz-adv-x="698" 
d="M762 -87l54 -92c-32 -24 -77 -43 -142 -43c-117 0 -196 64 -196 191v88c-43 -49 -91 -74 -153 -74c-92 0 -148 60 -148 160v231c0 41 -21 61 -56 61c-30 0 -47 -8 -71 -20l-53 92c32 24 76 43 142 43c117 0 196 -64 196 -191v-188c0 -56 21 -71 51 -71c34 0 64 24 92 68
v363h158v-577c0 -41 21 -61 56 -61c30 0 47 8 70 20z" />
    <glyph glyph-name="uni0195" unicode="&#x195;" horiz-adv-x="869" 
d="M798 531c15 -81 29 -172 29 -283c0 -189 -132 -265 -259 -265c-112 0 -207 59 -207 197v181c0 56 -20 71 -50 71c-35 0 -65 -25 -92 -68v-364h-158v742l158 16v-284c43 49 90 74 153 74c91 0 147 -59 147 -160v-205c0 -61 23 -84 60 -84c43 0 90 39 90 162
c0 82 -11 177 -27 270h156z" />
    <glyph glyph-name="i" unicode="i" horiz-adv-x="280" 
d="M139 811c56 0 94 -39 94 -90s-38 -90 -94 -90c-54 0 -93 39 -93 90s39 90 93 90zM219 531v-531h-158v531h158z" />
    <glyph glyph-name="dotlessi" unicode="&#x131;" horiz-adv-x="280" 
d="M219 531v-531h-158v531h158z" />
    <glyph glyph-name="iacute" unicode="&#xed;" horiz-adv-x="280" 
d="M212 835l62 -118l-236 -95l-44 81zM219 531v-531h-158v531h158z" />
    <glyph glyph-name="iacute.loclHUN" horiz-adv-x="280" 
d="M164 829l117 -66l-142 -162l-71 41zM219 531v-531h-158v531h158z" />
    <glyph glyph-name="ibreve" unicode="&#x12d;" horiz-adv-x="280" 
d="M139 632c-105 0 -164 77 -172 173l87 15c12 -48 39 -78 85 -78s73 30 86 78l87 -15c-8 -96 -68 -173 -173 -173zM219 531v-531h-158v531h158z" />
    <glyph glyph-name="uni01D0" unicode="&#x1d0;" horiz-adv-x="280" 
d="M273 813l56 -65l-141 -137h-96l-142 137l57 65l133 -91zM219 531v-531h-158v531h158z" />
    <glyph glyph-name="icircumflex" unicode="&#xee;" horiz-adv-x="280" 
d="M6 620l-56 65l141 137h97l141 -137l-56 -65l-133 92zM219 531v-531h-158v531h158z" />
    <glyph glyph-name="uni0209" unicode="&#x209;" horiz-adv-x="280" 
d="M20 860l97 -197l-81 -38l-122 182zM196 860l88 -197l-83 -33l-113 180zM219 531v-531h-158v531h158z" />
    <glyph glyph-name="idieresis" unicode="&#xef;" horiz-adv-x="280" 
d="M24 799c46 0 81 -35 81 -79s-35 -79 -81 -79c-45 0 -81 35 -81 79s36 79 81 79zM255 799c47 0 81 -35 81 -79s-34 -79 -81 -79c-44 0 -80 35 -80 79s36 79 80 79zM219 531v-531h-158v531h158z" />
    <glyph glyph-name="uni1E2F" unicode="&#x1e2f;" horiz-adv-x="280" 
d="M210 950l86 -84l-158 -141l-59 54zM17 759c44 0 81 -35 81 -79s-37 -79 -81 -79c-46 0 -81 35 -81 79s35 79 81 79zM261 759c45 0 81 -35 81 -79s-36 -79 -81 -79c-46 0 -81 35 -81 79s35 79 81 79zM219 531v-531h-158v531h158z" />
    <glyph glyph-name="i.loclTRK" horiz-adv-x="280" 
d="M139 811c55 0 94 -39 94 -90s-39 -90 -94 -90s-93 39 -93 90s38 90 93 90zM219 531v-531h-158v531h158z" />
    <glyph glyph-name="uni1ECB" unicode="&#x1ecb;" horiz-adv-x="280" 
d="M139 811c56 0 94 -39 94 -90s-38 -90 -94 -90c-54 0 -93 39 -93 90s39 90 93 90zM219 531v-531h-158v531h158zM140 -239c-56 0 -94 38 -94 89s38 90 94 90c54 0 93 -39 93 -90s-39 -89 -93 -89z" />
    <glyph glyph-name="uni1D7B" unicode="&#x1d7b;" horiz-adv-x="280" 
d="M300 347v-122h-81v-225h-158v225h-80v122h80v184h158v-184h81z" />
    <glyph glyph-name="igrave" unicode="&#xec;" horiz-adv-x="280" 
d="M72 835l218 -132l-44 -81l-236 95zM219 531v-531h-158v531h158z" />
    <glyph glyph-name="uni1EC9" unicode="&#x1ec9;" horiz-adv-x="280" 
d="M92 605v99c49 3 71 12 71 38c0 21 -16 31 -40 31c-23 0 -40 -5 -60 -13l-26 66c28 16 62 26 109 26c81 0 124 -42 124 -101c0 -52 -30 -84 -84 -94v-52h-94zM219 531v-531h-158v531h158z" />
    <glyph glyph-name="uni020B" unicode="&#x20b;" horiz-adv-x="280" 
d="M139 789c105 0 165 -77 173 -172l-87 -15c-13 48 -40 77 -86 77s-73 -29 -85 -77l-87 15c8 95 67 172 172 172zM219 531v-531h-158v531h158z" />
    <glyph glyph-name="ij" unicode="&#x133;" 
d="M139 811c56 0 94 -39 94 -90s-38 -90 -94 -90c-54 0 -93 39 -93 90s39 90 93 90zM420 811c55 0 94 -39 94 -90s-39 -90 -94 -90s-93 39 -93 90s38 90 93 90zM219 531v-531h-158v531h158zM499 531v-471c0 -173 -89 -236 -213 -281l-53 115c68 31 108 59 108 156v481h158z
" />
    <glyph glyph-name="imacron" unicode="&#x12b;" horiz-adv-x="280" 
d="M292 655h-305v110h305v-110zM219 531v-531h-158v531h158z" />
    <glyph glyph-name="iogonek" unicode="&#x12f;" horiz-adv-x="280" 
d="M139 631c-55 0 -93 39 -93 90s38 90 93 90s94 -39 94 -90s-39 -90 -94 -90zM61 10v521h158v-531h-25c-99 -37 -118 -74 -118 -102c0 -30 17 -46 53 -46c19 0 38 3 61 8l-11 -98c-22 -5 -44 -8 -70 -8c-85 0 -147 45 -147 117c0 62 37 106 99 139z" />
    <glyph glyph-name="uni0269" unicode="&#x269;" horiz-adv-x="300" 
d="M200 -17c-92 0 -146 55 -146 152v396h158v-390c0 -22 9 -33 28 -33c10 0 17 2 26 4l30 -111c-23 -10 -57 -18 -96 -18z" />
    <glyph glyph-name="uni0268" unicode="&#x268;" horiz-adv-x="330" 
d="M164 631c-55 0 -93 39 -93 90s38 90 93 90s94 -39 94 -90s-39 -90 -94 -90zM324 347v-122h-82v-225h-158v225h-78v122h78v184h158v-184h82z" />
    <glyph glyph-name="uni0268.dotless" horiz-adv-x="330" 
d="M323 347v-122h-82v-225h-158v225h-78v122h78v184h158v-184h82z" />
    <glyph glyph-name="itilde" unicode="&#x129;" horiz-adv-x="280" 
d="M198 635c-28 0 -47 8 -67 23c-18 13 -30 22 -47 22c-24 0 -37 -16 -53 -44l-79 38c25 64 69 118 129 118c31 0 49 -10 70 -24c18 -13 30 -21 46 -21c22 0 36 15 52 44l79 -39c-26 -67 -71 -117 -130 -117zM219 531v-531h-158v531h158z" />
    <glyph glyph-name="j" unicode="j" horiz-adv-x="280" 
d="M140 811c55 0 94 -39 94 -90s-39 -90 -94 -90s-93 39 -93 90s38 90 93 90zM219 531v-471c0 -173 -89 -236 -213 -281l-53 115c68 31 108 59 108 156v481h158z" />
    <glyph glyph-name="uni0237" unicode="&#x237;" horiz-adv-x="280" 
d="M219 531v-471c0 -173 -89 -236 -213 -281l-53 115c68 31 108 59 108 156v481h158z" />
    <glyph glyph-name="uni01F0" unicode="&#x1f0;" horiz-adv-x="280" 
d="M274 813l56 -65l-141 -137h-96l-142 137l57 65l133 -91zM219 531v-471c0 -173 -89 -236 -213 -281l-53 115c68 31 108 59 108 156v481h158z" />
    <glyph glyph-name="jcircumflex" unicode="&#x135;" horiz-adv-x="280" 
d="M7 620l-56 65l141 137h97l141 -137l-56 -65l-133 92zM219 531v-471c0 -173 -89 -236 -213 -281l-53 115c68 31 108 59 108 156v481h158z" />
    <glyph glyph-name="uni029D" unicode="&#x29d;" horiz-adv-x="341" 
d="M198 631c-55 0 -93 39 -93 90s38 90 93 90s94 -39 94 -90s-39 -90 -94 -90zM377 -44l-28 -66c-25 11 -56 22 -84 31c-25 -97 -90 -143 -198 -143c-95 0 -148 45 -148 118c0 83 62 129 157 129c14 0 30 -1 43 -2v508h158v-500c0 -12 0 -24 -1 -35c38 -11 68 -23 101 -40z
M57 -139c40 0 58 25 61 85c-11 2 -26 3 -42 3c-42 0 -63 -16 -63 -48c0 -26 15 -40 44 -40z" />
    <glyph glyph-name="uni025F" unicode="&#x25f;" horiz-adv-x="330" 
d="M325 307v-122h-81v-125c0 -173 -89 -236 -213 -281l-53 115c68 31 108 59 108 156v135h-80v122h80v224h158v-224h81z" />
    <glyph glyph-name="uni0284" unicode="&#x284;" horiz-adv-x="331" 
d="M246 110h77v-110h-81c-19 -128 -101 -182 -209 -221l-51 107c59 25 97 52 104 114h-82v110h84v466c0 108 65 183 189 183c60 0 103 -18 134 -38l-45 -98c-23 12 -42 19 -68 19c-34 0 -52 -18 -52 -61v-471z" />
    <glyph glyph-name="uni0249" unicode="&#x249;" horiz-adv-x="330" 
d="M165 631c-55 0 -93 39 -93 90s38 90 93 90s94 -39 94 -90s-39 -90 -94 -90zM325 307v-122h-81v-125c0 -173 -89 -236 -213 -281l-53 115c68 31 108 59 108 156v135h-80v122h80v224h158v-224h81z" />
    <glyph glyph-name="k" unicode="k" horiz-adv-x="551" 
d="M219 759v-759h-158v742zM547 531l-161 -233l174 -298h-178l-158 290l162 241h161z" />
    <glyph glyph-name="uni01E9" unicode="&#x1e9;" horiz-adv-x="551" 
d="M429 993l56 -65l-141 -129h-96l-142 129l57 65l133 -84zM219 759v-759h-158v742zM547 531l-161 -233l174 -298h-178l-158 290l162 241h161z" />
    <glyph glyph-name="uni0137" unicode="&#x137;" horiz-adv-x="551" 
d="M219 759v-759h-158v742zM547 531l-161 -233l174 -298h-178l-158 290l162 241h161zM275 -68c46 0 79 -33 79 -77c0 -26 -8 -46 -27 -84l-46 -96h-79l27 115c-19 15 -33 36 -33 65c0 42 33 77 79 77z" />
    <glyph glyph-name="kgreenlandic" unicode="&#x138;" horiz-adv-x="550" 
d="M219 531v-531h-158v531h158zM546 531l-161 -243l174 -288h-178l-159 280l163 251h161z" />
    <glyph glyph-name="uni0199" unicode="&#x199;" horiz-adv-x="551" 
d="M283 642c-46 0 -64 -20 -64 -70v-572h-158v578c0 102 67 181 203 181c55 0 106 -14 145 -34l-43 -101c-30 13 -60 18 -83 18zM386 298l174 -298h-178l-158 290l162 241h161z" />
    <glyph glyph-name="uni029E" unicode="&#x29e;" horiz-adv-x="551" 
d="M4 0l161 234l-174 297h178l158 -290l-162 -241h-161zM332 -205v736h158v-753z" />
    <glyph glyph-name="l" unicode="l" horiz-adv-x="300" 
d="M200 -17c-92 0 -146 55 -146 152v607l158 17v-618c0 -22 9 -33 28 -33c10 0 19 2 26 5l30 -112c-23 -10 -57 -18 -96 -18z" />
    <glyph glyph-name="lacute" unicode="&#x13a;" horiz-adv-x="300" 
d="M214 1005l59 -118l-240 -87l-40 80zM200 -17c-92 0 -146 55 -146 152v607l158 17v-618c0 -22 9 -33 28 -33c10 0 19 2 26 5l30 -112c-23 -10 -57 -18 -96 -18z" />
    <glyph glyph-name="uni019B" unicode="&#x19b;" horiz-adv-x="529" 
d="M390 457c53 -228 86 -328 157 -424l-152 -50c-64 103 -96 197 -134 398l-97 -398l-156 36l158 470h78c-8 32 -16 58 -26 79l-57 -48l-86 52l73 64c-23 9 -50 15 -86 20l19 102c66 -10 118 -23 161 -48l72 60l65 -74l-64 -52c31 -44 55 -103 75 -187z" />
    <glyph glyph-name="uni019A" unicode="&#x19a;" horiz-adv-x="335" 
d="M295 113l31 -112c-24 -10 -58 -18 -96 -18c-92 0 -146 55 -146 152v181h-78v111h78v315l158 17v-332h82v-111h-82v-175c0 -22 8 -33 27 -33c11 0 19 2 26 5z" />
    <glyph glyph-name="uni026C" unicode="&#x26c;" horiz-adv-x="427" 
d="M341 108c10 0 19 2 26 5l30 -112c-23 -10 -57 -18 -96 -18c-92 0 -146 55 -146 152v106c-109 4 -159 53 -159 126c0 74 54 115 125 115c13 0 25 -2 34 -3v263l158 17v-430h2c26 2 48 5 72 10l12 -80c-24 -7 -54 -12 -84 -14h-2v-104c0 -22 9 -33 28 -33zM100 368
c0 -28 20 -40 55 -41v72c-7 1 -14 2 -22 2c-21 0 -33 -12 -33 -33z" />
    <glyph glyph-name="lcaron" unicode="&#x13e;" horiz-adv-x="369" 
d="M200 -17c-92 0 -146 55 -146 152v607l158 17v-618c0 -22 9 -33 28 -33c10 0 19 2 26 5l30 -112c-23 -10 -57 -18 -96 -18zM339 526l55 215l-119 17l-23 -219z" />
    <glyph glyph-name="uni1E3D" unicode="&#x1e3d;" horiz-adv-x="300" 
d="M200 -17c-92 0 -146 55 -146 152v607l158 17v-618c0 -22 9 -33 28 -33c10 0 19 2 26 5l30 -112c-23 -10 -57 -18 -96 -18zM47 -265l-56 65l141 137h97l141 -137l-56 -65l-133 92z" />
    <glyph glyph-name="uni013C" unicode="&#x13c;" horiz-adv-x="300" 
d="M200 -17c-92 0 -146 55 -146 152v607l158 17v-618c0 -22 9 -33 28 -33c10 0 19 2 26 5l30 -112c-23 -10 -57 -18 -96 -18zM181 -68c46 0 79 -33 79 -77c0 -26 -8 -46 -27 -84l-46 -96h-79l27 115c-19 15 -33 36 -33 65c0 42 33 77 79 77z" />
    <glyph glyph-name="uni0234" unicode="&#x234;" horiz-adv-x="466" 
d="M352 245c68 0 121 -43 121 -114c0 -100 -84 -148 -191 -148c-17 0 -33 1 -50 4l-32 -71l-78 30l32 66c-56 29 -97 86 -97 182v548l158 17v-569c0 -17 1 -32 4 -43c31 68 69 98 133 98zM305 97c37 0 58 12 58 36c0 17 -10 27 -27 27c-22 0 -34 -14 -56 -62
c7 -1 16 -1 25 -1z" />
    <glyph glyph-name="ldot" unicode="&#x140;" horiz-adv-x="442" 
d="M200 -17c-92 0 -146 55 -146 152v607l158 17v-618c0 -22 9 -33 28 -33c10 0 19 2 26 5l30 -112c-23 -10 -57 -18 -96 -18zM356 466c55 0 93 -39 93 -90c0 -50 -38 -89 -93 -89s-94 39 -94 89c0 51 39 90 94 90z" />
    <glyph glyph-name="uni1E37" unicode="&#x1e37;" horiz-adv-x="300" 
d="M200 -17c-92 0 -146 55 -146 152v607l158 17v-618c0 -22 9 -33 28 -33c10 0 19 2 26 5l30 -112c-23 -10 -57 -18 -96 -18zM181 -239c-56 0 -94 38 -94 89s38 90 94 90c54 0 93 -39 93 -90s-39 -89 -93 -89z" />
    <glyph glyph-name="uni026E" unicode="&#x26e;" horiz-adv-x="700" 
d="M472 212c136 -8 216 -73 216 -204s-100 -230 -269 -230c-90 0 -158 28 -209 75l74 92c40 -32 76 -46 125 -46c69 0 116 38 116 119c0 75 -43 102 -126 102h-93v92l171 201h-265v-272c0 -22 9 -33 28 -33c10 0 19 2 26 5l30 -112c-23 -10 -57 -18 -96 -18
c-92 0 -146 55 -146 152v607l158 17v-228h444v-108z" />
    <glyph glyph-name="uni026D" unicode="&#x26d;" horiz-adv-x="281" 
d="M346 -87l53 -92c-32 -24 -76 -43 -142 -43c-117 0 -196 64 -196 191v773l158 17v-805c0 -41 21 -61 56 -61c30 0 47 8 71 20z" />
    <glyph glyph-name="uni01C9" unicode="&#x1c9;" horiz-adv-x="580" 
d="M440 811c55 0 94 -39 94 -90s-39 -90 -94 -90s-93 39 -93 90s38 90 93 90zM200 -17c-92 0 -146 55 -146 152v607l158 17v-618c0 -22 9 -33 28 -33c10 0 19 2 26 5l30 -112c-23 -10 -57 -18 -96 -18zM519 531v-471c0 -173 -89 -236 -213 -281l-53 115
c68 31 108 59 108 156v481h158z" />
    <glyph glyph-name="uni026B" unicode="&#x26b;" horiz-adv-x="458" 
d="M310 276h-6v-135c0 -22 8 -33 27 -33c11 0 19 2 26 5l31 -112c-24 -10 -58 -18 -96 -18c-93 0 -146 55 -146 152v201h-5c-35 0 -52 -25 -69 -51l-84 42c30 60 75 125 158 127v288l158 17v-364c5 -1 9 -2 14 -2c34 0 51 24 69 48l83 -41c-31 -61 -76 -124 -160 -124z" />
    <glyph glyph-name="uni02AA" unicode="&#x2aa;" horiz-adv-x="685" 
d="M357 -17c-233 0 -303 93 -303 230v529l158 17v-552c0 -80 43 -111 145 -111c113 0 161 19 161 58c0 27 -11 42 -99 70c-105 33 -144 76 -144 160c0 93 77 164 199 164c69 0 131 -22 180 -63l-54 -86c-40 24 -79 36 -118 36s-60 -17 -60 -42s17 -40 99 -66
c102 -33 147 -81 147 -161c0 -120 -112 -183 -311 -183z" />
    <glyph glyph-name="lslash" unicode="&#x142;" horiz-adv-x="358" 
d="M268 108c11 0 19 2 26 5l31 -112c-24 -10 -58 -18 -96 -18c-93 0 -146 55 -146 152v132l-39 -24l-53 86l92 58v355l158 17v-277l69 41l52 -86l-121 -74v-222c0 -22 8 -33 27 -33z" />
    <glyph glyph-name="uni02AB" unicode="&#x2ab;" horiz-adv-x="706" 
d="M693 120l-14 -120h-388c-24 -10 -55 -17 -91 -17c-92 0 -146 55 -146 152v607l158 17v-618c0 -22 9 -33 28 -33c10 0 19 2 26 5l240 299h-220v119h402v-111l-243 -300h248z" />
    <glyph glyph-name="m" unicode="m" horiz-adv-x="841" 
d="M648 548c82 0 138 -59 138 -160v-388h-158v361c0 56 -20 71 -44 71c-34 0 -58 -25 -81 -69v-363h-158v361c0 56 -21 71 -45 71c-33 0 -58 -25 -81 -69v-363h-158v531h137l12 -63c40 53 89 80 154 80c59 0 104 -30 125 -84c42 56 91 84 159 84z" />
    <glyph glyph-name="uni1E3F" unicode="&#x1e3f;" horiz-adv-x="841" 
d="M555 717l-236 -95l-44 81l218 132zM648 548c82 0 138 -59 138 -160v-388h-158v361c0 56 -20 71 -44 71c-34 0 -58 -25 -81 -69v-363h-158v361c0 56 -21 71 -45 71c-33 0 -58 -25 -81 -69v-363h-158v531h137l12 -63c40 53 89 80 154 80c59 0 104 -30 125 -84
c42 56 91 84 159 84z" />
    <glyph glyph-name="uni1E41" unicode="&#x1e41;" horiz-adv-x="841" 
d="M421 631c-55 0 -93 39 -93 90s38 90 93 90s94 -39 94 -90s-39 -90 -94 -90zM648 548c82 0 138 -59 138 -160v-388h-158v361c0 56 -20 71 -44 71c-34 0 -58 -25 -81 -69v-363h-158v361c0 56 -21 71 -45 71c-33 0 -58 -25 -81 -69v-363h-158v531h137l12 -63
c40 53 89 80 154 80c59 0 104 -30 125 -84c42 56 91 84 159 84z" />
    <glyph glyph-name="uni0271" unicode="&#x271;" horiz-adv-x="842" 
d="M786 1h2v-32c0 -127 -80 -191 -198 -191c-64 0 -109 19 -141 43l54 93c23 -12 40 -21 70 -21c35 0 57 20 57 61v46h-2v361c0 56 -20 71 -44 71c-34 0 -58 -25 -81 -69v-363h-158v361c0 56 -21 71 -45 71c-33 0 -58 -25 -81 -69v-363h-158v531h137l12 -63
c40 53 89 80 154 80c59 0 104 -30 125 -84c42 56 91 84 159 84c82 0 138 -59 138 -160v-387z" />
    <glyph glyph-name="uni0270" unicode="&#x270;" horiz-adv-x="843" 
d="M780 102h3v-324l-158 17v260c-39 -47 -86 -72 -148 -72c-59 0 -105 31 -125 84c-42 -55 -91 -84 -159 -84c-82 0 -139 60 -139 160v388h158v-360c0 -56 21 -71 45 -71c33 0 57 24 81 68v363h158v-360c0 -56 20 -71 45 -71c33 0 58 24 81 68v363h158v-429z" />
    <glyph glyph-name="uni026F" unicode="&#x26f;" horiz-adv-x="841" 
d="M622 531h158v-531h-138l-11 62c-41 -52 -89 -79 -154 -79c-59 0 -105 31 -125 84c-42 -55 -91 -84 -159 -84c-82 0 -139 60 -139 160v388h158v-360c0 -56 21 -71 45 -71c33 0 57 24 81 68v363h158v-360c0 -56 20 -71 45 -71c33 0 58 24 81 68v363z" />
    <glyph glyph-name="n" unicode="n" horiz-adv-x="573" 
d="M372 548c92 0 147 -59 147 -160v-388h-158v361c0 56 -19 71 -50 71c-35 0 -65 -25 -92 -69v-363h-158v531h137l12 -64c44 53 95 81 162 81z" />
    <glyph glyph-name="nacute" unicode="&#x144;" horiz-adv-x="573" 
d="M426 717l-236 -95l-44 81l218 132zM372 548c92 0 147 -59 147 -160v-388h-158v361c0 56 -19 71 -50 71c-35 0 -65 -25 -92 -69v-363h-158v531h137l12 -64c44 53 95 81 162 81z" />
    <glyph glyph-name="nacute.loclPLK" horiz-adv-x="573" 
d="M433 763l-142 -162l-71 41l96 187zM372 548c92 0 147 -59 147 -160v-388h-158v361c0 56 -19 71 -50 71c-35 0 -65 -25 -92 -69v-363h-158v531h137l12 -64c44 53 95 81 162 81z" />
    <glyph glyph-name="napostrophe" unicode="&#x149;" horiz-adv-x="698" 
d="M102 760c40 0 70 -29 70 -68c0 -23 -7 -40 -24 -75l-41 -82h-69l24 100c-17 13 -29 32 -29 57c0 37 30 68 69 68zM496 548c92 0 148 -59 148 -160v-388h-158v361c0 56 -20 71 -50 71c-36 0 -65 -25 -93 -69v-363h-158v531h138l12 -63c44 52 95 80 161 80z" />
    <glyph glyph-name="ncaron" unicode="&#x148;" horiz-adv-x="573" 
d="M341 611h-96l-142 137l57 65l133 -91l133 91l56 -65zM372 548c92 0 147 -59 147 -160v-388h-158v361c0 56 -19 71 -50 71c-35 0 -65 -25 -92 -69v-363h-158v531h137l12 -64c44 53 95 81 162 81z" />
    <glyph glyph-name="uni1E4B" unicode="&#x1e4b;" horiz-adv-x="573" 
d="M372 548c92 0 147 -59 147 -160v-388h-158v361c0 56 -19 71 -50 71c-35 0 -65 -25 -92 -69v-363h-158v531h137l12 -64c44 53 95 81 162 81zM239 -63h97l141 -137l-56 -65l-133 92l-134 -92l-56 65z" />
    <glyph glyph-name="uni0146" unicode="&#x146;" horiz-adv-x="573" 
d="M372 548c92 0 147 -59 147 -160v-388h-158v361c0 56 -19 71 -50 71c-35 0 -65 -25 -92 -69v-363h-158v531h137l12 -64c44 53 95 81 162 81zM289 -68c46 0 79 -33 79 -77c0 -26 -8 -46 -27 -84l-46 -96h-79l27 115c-19 15 -33 36 -33 65c0 42 33 77 79 77z" />
    <glyph glyph-name="uni0235" unicode="&#x235;" horiz-adv-x="770" 
d="M656 245c69 0 121 -43 121 -114c0 -100 -83 -148 -191 -148c-17 0 -33 1 -50 4l-32 -71l-78 30l32 66c-56 29 -97 86 -97 182v167c0 56 -19 71 -50 71c-35 0 -65 -25 -92 -69v-363h-158v531h137l12 -64c44 53 95 81 162 81c92 0 147 -59 147 -160v-198c0 -17 1 -32 4 -43
c31 68 69 98 133 98zM609 97c37 0 58 12 58 36c0 17 -10 27 -27 27c-22 0 -34 -14 -55 -62c7 -1 15 -1 24 -1z" />
    <glyph glyph-name="uni1E45" unicode="&#x1e45;" horiz-adv-x="573" 
d="M292 631c-55 0 -93 39 -93 90s38 90 93 90s94 -39 94 -90s-39 -90 -94 -90zM372 548c92 0 147 -59 147 -160v-388h-158v361c0 56 -19 71 -50 71c-35 0 -65 -25 -92 -69v-363h-158v531h137l12 -64c44 53 95 81 162 81z" />
    <glyph glyph-name="uni1E47" unicode="&#x1e47;" horiz-adv-x="573" 
d="M372 548c92 0 147 -59 147 -160v-388h-158v361c0 56 -19 71 -50 71c-35 0 -65 -25 -92 -69v-363h-158v531h137l12 -64c44 53 95 81 162 81zM288 -60c54 0 93 -39 93 -90s-39 -89 -93 -89c-56 0 -94 38 -94 89s38 90 94 90z" />
    <glyph glyph-name="uni01F9" unicode="&#x1f9;" horiz-adv-x="573" 
d="M443 703l-44 -81l-236 95l62 118zM372 548c92 0 147 -59 147 -160v-388h-158v361c0 56 -19 71 -50 71c-35 0 -65 -25 -92 -69v-363h-158v531h137l12 -64c44 53 95 81 162 81z" />
    <glyph glyph-name="eng" unicode="&#x14b;" horiz-adv-x="575" 
d="M519 1h1v-32c0 -127 -79 -191 -196 -191c-66 0 -110 19 -142 43l53 92c24 -12 41 -20 71 -20c35 0 56 20 56 61v46h-1v361c0 56 -19 71 -50 71c-35 0 -65 -25 -92 -69v-363h-158v531h137l12 -64c44 53 95 81 162 81c92 0 147 -59 147 -160v-387z" />
    <glyph glyph-name="uni0272" unicode="&#x272;" horiz-adv-x="573" 
d="M372 548c92 0 147 -59 147 -160v-388h-158v361c0 56 -19 71 -50 71c-35 0 -65 -25 -92 -69v-362h1v-32c0 -127 -79 -191 -196 -191c-66 0 -110 19 -142 43l53 92c24 -12 41 -20 70 -20c36 0 57 20 57 61v46h-1v531h137l12 -64c44 53 95 81 162 81z" />
    <glyph glyph-name="uni0273" unicode="&#x273;" horiz-adv-x="577" 
d="M647 -87l54 -92c-32 -24 -77 -43 -142 -43c-117 0 -197 64 -197 191v31h-1v361c0 56 -19 71 -50 71c-35 0 -65 -25 -92 -69v-363h-158v531h137l12 -64c44 53 95 81 162 81c92 0 147 -59 147 -160v-387h1v-47c0 -41 22 -61 57 -61c30 0 46 8 70 20z" />
    <glyph glyph-name="uni01CC" unicode="&#x1cc;" horiz-adv-x="853" 
d="M713 631c-55 0 -93 39 -93 90s38 90 93 90s94 -39 94 -90s-39 -90 -94 -90zM372 548c92 0 147 -59 147 -160v-388h-158v361c0 56 -19 71 -50 71c-35 0 -65 -25 -92 -69v-363h-158v531h137l12 -64c44 53 95 81 162 81zM634 50v481h158v-471c0 -173 -89 -236 -213 -281
l-53 115c68 31 108 59 108 156z" />
    <glyph glyph-name="uni019E" unicode="&#x19e;" horiz-adv-x="575" 
d="M519 1h1v-223l-158 17v205h-1v361c0 56 -19 71 -50 71c-35 0 -65 -25 -92 -69v-363h-158v531h137l12 -64c44 53 95 81 162 81c92 0 147 -59 147 -160v-387z" />
    <glyph glyph-name="ntilde" unicode="&#xf1;" horiz-adv-x="573" 
d="M236 680c-24 0 -37 -16 -53 -44l-79 38c25 64 69 118 129 118c31 0 49 -10 70 -24c18 -13 30 -21 46 -21c22 0 36 15 52 44l79 -39c-26 -67 -71 -117 -130 -117c-28 0 -47 8 -67 23c-18 13 -30 22 -47 22zM372 548c92 0 147 -59 147 -160v-388h-158v361
c0 56 -19 71 -50 71c-35 0 -65 -25 -92 -69v-363h-158v531h137l12 -64c44 53 95 81 162 81z" />
    <glyph glyph-name="o" unicode="o" horiz-adv-x="584" 
d="M292 548c162 0 260 -104 260 -283c0 -170 -98 -282 -260 -282c-161 0 -260 104 -260 283c0 170 98 282 260 282zM292 432c-64 0 -96 -51 -96 -166c0 -118 32 -167 96 -167s96 51 96 166c0 118 -32 167 -96 167z" />
    <glyph glyph-name="oacute" unicode="&#xf3;" horiz-adv-x="584" 
d="M364 835l62 -118l-236 -95l-44 81zM292 548c162 0 260 -104 260 -283c0 -170 -98 -282 -260 -282c-161 0 -260 104 -260 283c0 170 98 282 260 282zM292 432c-64 0 -96 -51 -96 -166c0 -118 32 -167 96 -167s96 51 96 166c0 118 -32 167 -96 167z" />
    <glyph glyph-name="oacute.loclHUN" horiz-adv-x="584" 
d="M316 829l117 -66l-142 -162l-71 41zM292 548c162 0 260 -104 260 -283c0 -170 -98 -282 -260 -282c-161 0 -260 104 -260 283c0 170 98 282 260 282zM292 432c-64 0 -96 -51 -96 -166c0 -118 32 -167 96 -167s96 51 96 166c0 118 -32 167 -96 167z" />
    <glyph glyph-name="oacute.loclPLK" horiz-adv-x="584" 
d="M316 829l117 -66l-142 -162l-71 41zM292 548c162 0 260 -104 260 -283c0 -170 -98 -282 -260 -282c-161 0 -260 104 -260 283c0 170 98 282 260 282zM292 432c-64 0 -96 -51 -96 -166c0 -118 32 -167 96 -167s96 51 96 166c0 118 -32 167 -96 167z" />
    <glyph glyph-name="uni0275" unicode="&#x275;" horiz-adv-x="584" 
d="M292 548c162 0 260 -104 260 -283c0 -170 -98 -282 -260 -282c-161 0 -260 104 -260 283c0 170 98 282 260 282zM292 434c-58 0 -90 -37 -99 -120h198c-9 85 -41 120 -99 120zM292 97c60 0 93 40 100 129h-200c7 -90 40 -129 100 -129z" />
    <glyph glyph-name="obreve" unicode="&#x14f;" horiz-adv-x="584" 
d="M291 632c-105 0 -164 77 -172 173l87 15c12 -48 39 -78 85 -78s73 30 86 78l87 -15c-8 -96 -68 -173 -173 -173zM292 548c162 0 260 -104 260 -283c0 -170 -98 -282 -260 -282c-161 0 -260 104 -260 283c0 170 98 282 260 282zM292 432c-64 0 -96 -51 -96 -166
c0 -118 32 -167 96 -167s96 51 96 166c0 118 -32 167 -96 167z" />
    <glyph glyph-name="uni01D2" unicode="&#x1d2;" horiz-adv-x="584" 
d="M425 813l56 -65l-141 -137h-96l-142 137l57 65l133 -91zM292 548c162 0 260 -104 260 -283c0 -170 -98 -282 -260 -282c-161 0 -260 104 -260 283c0 170 98 282 260 282zM292 432c-64 0 -96 -51 -96 -166c0 -118 32 -167 96 -167s96 51 96 166c0 118 -32 167 -96 167z
" />
    <glyph glyph-name="ocircumflex" unicode="&#xf4;" horiz-adv-x="584" 
d="M158 620l-56 65l141 137h97l141 -137l-56 -65l-133 92zM292 548c162 0 260 -104 260 -283c0 -170 -98 -282 -260 -282c-161 0 -260 104 -260 283c0 170 98 282 260 282zM292 432c-64 0 -96 -51 -96 -166c0 -118 32 -167 96 -167s96 51 96 166c0 118 -32 167 -96 167z" />
    <glyph glyph-name="uni1ED1" unicode="&#x1ed1;" horiz-adv-x="584" 
d="M524 957l86 -84l-158 -140l-59 53zM157 585l-57 65l142 129h96l141 -129l-56 -65l-133 84zM292 548c162 0 260 -104 260 -283c0 -170 -98 -282 -260 -282c-161 0 -260 104 -260 283c0 170 98 282 260 282zM292 432c-64 0 -96 -51 -96 -166c0 -118 32 -167 96 -167
s96 51 96 166c0 118 -32 167 -96 167z" />
    <glyph glyph-name="uni1ED9" unicode="&#x1ed9;" horiz-adv-x="584" 
d="M158 620l-56 65l141 137h97l141 -137l-56 -65l-133 92zM292 548c162 0 260 -104 260 -283c0 -170 -98 -282 -260 -282c-161 0 -260 104 -260 283c0 170 98 282 260 282zM292 432c-64 0 -96 -51 -96 -166c0 -118 32 -167 96 -167s96 51 96 166c0 118 -32 167 -96 167z
M292 -239c-56 0 -94 38 -94 89s38 90 94 90c54 0 93 -39 93 -90s-39 -89 -93 -89z" />
    <glyph glyph-name="uni1ED3" unicode="&#x1ed3;" horiz-adv-x="584" 
d="M57 957l131 -171l-59 -53l-158 140zM157 585l-57 65l142 129h96l141 -129l-56 -65l-133 84zM292 548c162 0 260 -104 260 -283c0 -170 -98 -282 -260 -282c-161 0 -260 104 -260 283c0 170 98 282 260 282zM292 432c-64 0 -96 -51 -96 -166c0 -118 32 -167 96 -167
s96 51 96 166c0 118 -32 167 -96 167z" />
    <glyph glyph-name="uni1ED5" unicode="&#x1ed5;" horiz-adv-x="584" 
d="M395 753v100c49 3 71 11 71 38c0 21 -16 31 -40 31s-40 -5 -60 -13l-26 65c28 17 62 27 109 27c81 0 124 -42 124 -102c0 -52 -30 -83 -84 -93v-53h-94zM157 585l-57 65l142 129h96l141 -129l-56 -65l-133 84zM292 548c162 0 260 -104 260 -283
c0 -170 -98 -282 -260 -282c-161 0 -260 104 -260 283c0 170 98 282 260 282zM292 432c-64 0 -96 -51 -96 -166c0 -118 32 -167 96 -167s96 51 96 166c0 118 -32 167 -96 167z" />
    <glyph glyph-name="uni1ED7" unicode="&#x1ed7;" horiz-adv-x="584" 
d="M347 815c-28 0 -46 9 -66 22c-19 13 -31 21 -48 21c-24 0 -37 -14 -53 -42l-79 36c25 60 69 111 129 111c31 0 50 -10 70 -23c18 -12 30 -20 46 -20c23 0 36 14 53 41l79 -36c-26 -63 -71 -110 -131 -110zM157 581l-57 65l142 129h96l141 -129l-56 -65l-133 84zM292 548
c162 0 260 -104 260 -283c0 -170 -98 -282 -260 -282c-161 0 -260 104 -260 283c0 170 98 282 260 282zM292 432c-64 0 -96 -51 -96 -166c0 -118 32 -167 96 -167s96 51 96 166c0 118 -32 167 -96 167z" />
    <glyph glyph-name="uni020D" unicode="&#x20d;" horiz-adv-x="584" 
d="M173 860l97 -197l-81 -38l-122 182zM349 860l88 -197l-83 -33l-113 180zM292 548c162 0 260 -104 260 -283c0 -170 -98 -282 -260 -282c-161 0 -260 104 -260 283c0 170 98 282 260 282zM292 432c-64 0 -96 -51 -96 -166c0 -118 32 -167 96 -167s96 51 96 166
c0 118 -32 167 -96 167z" />
    <glyph glyph-name="odieresis" unicode="&#xf6;" horiz-adv-x="584" 
d="M176 799c46 0 81 -35 81 -79s-35 -79 -81 -79c-45 0 -81 35 -81 79s36 79 81 79zM407 799c47 0 81 -35 81 -79s-34 -79 -81 -79c-44 0 -80 35 -80 79s36 79 80 79zM292 548c162 0 260 -104 260 -283c0 -170 -98 -282 -260 -282c-161 0 -260 104 -260 283
c0 170 98 282 260 282zM292 432c-64 0 -96 -51 -96 -166c0 -118 32 -167 96 -167s96 51 96 166c0 118 -32 167 -96 167z" />
    <glyph glyph-name="uni022B" unicode="&#x22b;" horiz-adv-x="584" 
d="M445 816h-305v110h305v-110zM175 760c46 0 81 -35 81 -79s-35 -79 -81 -79c-45 0 -81 35 -81 79s36 79 81 79zM406 760c47 0 81 -35 81 -79s-34 -79 -81 -79c-44 0 -80 35 -80 79s36 79 80 79zM292 548c162 0 260 -104 260 -283c0 -170 -98 -282 -260 -282
c-161 0 -260 104 -260 283c0 170 98 282 260 282zM292 432c-64 0 -96 -51 -96 -166c0 -118 32 -167 96 -167s96 51 96 166c0 118 -32 167 -96 167z" />
    <glyph glyph-name="uni022F" unicode="&#x22f;" horiz-adv-x="584" 
d="M291 811c55 0 94 -39 94 -90s-39 -90 -94 -90s-93 39 -93 90s38 90 93 90zM292 548c162 0 260 -104 260 -283c0 -170 -98 -282 -260 -282c-161 0 -260 104 -260 283c0 170 98 282 260 282zM292 432c-64 0 -96 -51 -96 -166c0 -118 32 -167 96 -167s96 51 96 166
c0 118 -32 167 -96 167z" />
    <glyph glyph-name="uni0231" unicode="&#x231;" horiz-adv-x="584" 
d="M445 837h-306v109h306v-109zM291 773c55 0 94 -39 94 -90c0 -50 -39 -89 -94 -89s-93 39 -93 89c0 51 38 90 93 90zM292 548c162 0 260 -104 260 -283c0 -170 -98 -282 -260 -282c-161 0 -260 104 -260 283c0 170 98 282 260 282zM292 432c-64 0 -96 -51 -96 -166
c0 -118 32 -167 96 -167s96 51 96 166c0 118 -32 167 -96 167z" />
    <glyph glyph-name="uni1ECD" unicode="&#x1ecd;" horiz-adv-x="584" 
d="M292 548c162 0 260 -104 260 -283c0 -170 -98 -282 -260 -282c-161 0 -260 104 -260 283c0 170 98 282 260 282zM292 432c-64 0 -96 -51 -96 -166c0 -118 32 -167 96 -167s96 51 96 166c0 118 -32 167 -96 167zM292 -239c-56 0 -94 38 -94 89s38 90 94 90
c54 0 93 -39 93 -90s-39 -89 -93 -89z" />
    <glyph glyph-name="ograve" unicode="&#xf2;" horiz-adv-x="584" 
d="M224 835l218 -132l-44 -81l-236 95zM292 548c162 0 260 -104 260 -283c0 -170 -98 -282 -260 -282c-161 0 -260 104 -260 283c0 170 98 282 260 282zM292 432c-64 0 -96 -51 -96 -166c0 -118 32 -167 96 -167s96 51 96 166c0 118 -32 167 -96 167z" />
    <glyph glyph-name="uni1ECF" unicode="&#x1ecf;" horiz-adv-x="584" 
d="M244 605v99c49 3 71 12 71 38c0 21 -16 31 -40 31c-23 0 -40 -5 -60 -13l-26 66c28 16 62 26 109 26c81 0 124 -42 124 -101c0 -52 -30 -84 -84 -94v-52h-94zM292 548c162 0 260 -104 260 -283c0 -170 -98 -282 -260 -282c-161 0 -260 104 -260 283c0 170 98 282 260 282
zM292 432c-64 0 -96 -51 -96 -166c0 -118 32 -167 96 -167s96 51 96 166c0 118 -32 167 -96 167z" />
    <glyph glyph-name="ohorn" unicode="&#x1a1;" horiz-adv-x="625" 
d="M635 521c0 -70 -39 -110 -106 -122c15 -38 23 -83 23 -134c0 -170 -98 -282 -260 -282c-161 0 -260 104 -260 283c0 170 98 282 260 282c82 0 147 -27 192 -76c31 5 43 22 43 55c0 29 -5 47 -12 67l101 15c10 -19 19 -46 19 -88zM292 99c64 0 96 51 96 166
c0 118 -32 167 -96 167s-96 -51 -96 -166c0 -118 32 -167 96 -167z" />
    <glyph glyph-name="uni1EDB" unicode="&#x1edb;" horiz-adv-x="625" 
d="M426 717l-237 -95l-43 81l218 132zM635 521c0 -70 -39 -110 -106 -122c15 -38 23 -83 23 -134c0 -170 -98 -282 -260 -282c-161 0 -260 104 -260 283c0 170 98 282 260 282c82 0 147 -27 192 -76c31 5 43 22 43 55c0 29 -5 47 -12 67l101 15c10 -19 19 -46 19 -88z
M292 99c64 0 96 51 96 166c0 118 -32 167 -96 167s-96 -51 -96 -166c0 -118 32 -167 96 -167z" />
    <glyph glyph-name="uni1EE3" unicode="&#x1ee3;" horiz-adv-x="625" 
d="M635 521c0 -70 -39 -110 -106 -122c15 -38 23 -83 23 -134c0 -170 -98 -282 -260 -282c-161 0 -260 104 -260 283c0 170 98 282 260 282c82 0 147 -27 192 -76c31 5 43 22 43 55c0 29 -5 47 -12 67l101 15c10 -19 19 -46 19 -88zM292 99c64 0 96 51 96 166
c0 118 -32 167 -96 167s-96 -51 -96 -166c0 -118 32 -167 96 -167zM292 -60c55 0 93 -39 93 -90s-38 -89 -93 -89s-94 38 -94 89s39 90 94 90z" />
    <glyph glyph-name="uni1EDD" unicode="&#x1edd;" horiz-adv-x="625" 
d="M442 703l-44 -81l-236 95l62 118zM635 521c0 -70 -39 -110 -106 -122c15 -38 23 -83 23 -134c0 -170 -98 -282 -260 -282c-161 0 -260 104 -260 283c0 170 98 282 260 282c82 0 147 -27 192 -76c31 5 43 22 43 55c0 29 -5 47 -12 67l101 15c10 -19 19 -46 19 -88zM292 99
c64 0 96 51 96 166c0 118 -32 167 -96 167s-96 -51 -96 -166c0 -118 32 -167 96 -167z" />
    <glyph glyph-name="uni1EDF" unicode="&#x1edf;" horiz-adv-x="625" 
d="M276 773c-24 0 -40 -5 -60 -13l-27 66c28 16 62 26 109 26c81 0 125 -42 125 -101c0 -52 -31 -84 -85 -94v-52h-93v99c48 3 71 12 71 38c0 21 -17 31 -40 31zM635 521c0 -70 -39 -110 -106 -122c15 -38 23 -83 23 -134c0 -170 -98 -282 -260 -282
c-161 0 -260 104 -260 283c0 170 98 282 260 282c82 0 147 -27 192 -76c31 5 43 22 43 55c0 29 -5 47 -12 67l101 15c10 -19 19 -46 19 -88zM292 99c64 0 96 51 96 166c0 118 -32 167 -96 167s-96 -51 -96 -166c0 -118 32 -167 96 -167z" />
    <glyph glyph-name="uni1EE1" unicode="&#x1ee1;" horiz-adv-x="625" 
d="M236 680c-24 0 -37 -16 -53 -44l-79 38c25 64 69 118 129 118c31 0 49 -10 69 -24c18 -13 31 -21 47 -21c22 0 35 15 52 44l79 -39c-26 -67 -71 -117 -130 -117c-28 0 -47 8 -67 23c-18 13 -30 22 -47 22zM635 521c0 -70 -39 -110 -106 -122c15 -38 23 -83 23 -134
c0 -170 -98 -282 -260 -282c-161 0 -260 104 -260 283c0 170 98 282 260 282c82 0 147 -27 192 -76c31 5 43 22 43 55c0 29 -5 47 -12 67l101 15c10 -19 19 -46 19 -88zM292 99c64 0 96 51 96 166c0 118 -32 167 -96 167s-96 -51 -96 -166c0 -118 32 -167 96 -167z" />
    <glyph glyph-name="ohungarumlaut" unicode="&#x151;" horiz-adv-x="584" 
d="M272 827l100 -57l-126 -169l-70 38zM443 818l97 -62l-135 -162l-67 42zM292 548c162 0 260 -104 260 -283c0 -170 -98 -282 -260 -282c-161 0 -260 104 -260 283c0 170 98 282 260 282zM292 432c-64 0 -96 -51 -96 -166c0 -118 32 -167 96 -167s96 51 96 166
c0 118 -32 167 -96 167z" />
    <glyph glyph-name="uni01A3" unicode="&#x1a3;" horiz-adv-x="828" 
d="M575 548c118 0 192 -65 192 -191v-579l-158 17v574c0 46 -20 64 -57 64c-13 0 -25 -2 -39 -5c25 -44 39 -99 39 -163c0 -170 -98 -282 -260 -282c-161 0 -260 104 -260 283c0 170 98 282 260 282c53 0 101 -13 140 -37c44 25 86 37 143 37zM292 99c64 0 96 51 96 166
c0 118 -32 167 -96 167s-96 -51 -96 -166c0 -118 32 -167 96 -167z" />
    <glyph glyph-name="uni020F" unicode="&#x20f;" horiz-adv-x="584" 
d="M291 789c105 0 165 -77 173 -172l-87 -15c-13 48 -40 77 -86 77s-73 -29 -85 -77l-87 15c8 95 67 172 172 172zM292 548c162 0 260 -104 260 -283c0 -170 -98 -282 -260 -282c-161 0 -260 104 -260 283c0 170 98 282 260 282zM292 432c-64 0 -96 -51 -96 -166
c0 -118 32 -167 96 -167s96 51 96 166c0 118 -32 167 -96 167z" />
    <glyph glyph-name="omacron" unicode="&#x14d;" horiz-adv-x="584" 
d="M444 655h-305v110h305v-110zM292 548c162 0 260 -104 260 -283c0 -170 -98 -282 -260 -282c-161 0 -260 104 -260 283c0 170 98 282 260 282zM292 432c-64 0 -96 -51 -96 -166c0 -118 32 -167 96 -167s96 51 96 166c0 118 -32 167 -96 167z" />
    <glyph glyph-name="uni1E53" unicode="&#x1e53;" horiz-adv-x="584" 
d="M374 960l59 -118l-240 -87l-40 80zM444 611h-305v110h305v-110zM292 548c162 0 260 -104 260 -283c0 -170 -98 -282 -260 -282c-161 0 -260 104 -260 283c0 170 98 282 260 282zM292 432c-64 0 -96 -51 -96 -166c0 -118 32 -167 96 -167s96 51 96 166
c0 118 -32 167 -96 167z" />
    <glyph glyph-name="uni1E51" unicode="&#x1e51;" horiz-adv-x="584" 
d="M208 960l221 -125l-40 -80l-240 87zM444 611h-305v110h305v-110zM292 548c162 0 260 -104 260 -283c0 -170 -98 -282 -260 -282c-161 0 -260 104 -260 283c0 170 98 282 260 282zM292 432c-64 0 -96 -51 -96 -166c0 -118 32 -167 96 -167s96 51 96 166
c0 118 -32 167 -96 167z" />
    <glyph glyph-name="uniA7B7" unicode="&#xa7b7;" horiz-adv-x="774" 
d="M674 531c34 -76 63 -171 63 -289c0 -179 -84 -259 -198 -259c-83 0 -134 35 -152 118c-22 -84 -68 -118 -154 -118c-114 0 -196 78 -196 259c0 118 28 212 63 289h143c-30 -95 -51 -184 -51 -282c0 -108 24 -150 67 -150c32 0 55 13 55 88v168l146 19v-187
c0 -70 23 -88 56 -88c38 0 67 35 67 151c0 97 -22 186 -53 281h144z" />
    <glyph glyph-name="uni0277" unicode="&#x277;" horiz-adv-x="764" 
d="M383 548c218 0 349 -105 349 -306c0 -179 -84 -259 -197 -259c-84 0 -134 35 -153 118c-22 -84 -68 -118 -153 -118c-115 0 -197 78 -197 259c0 201 132 306 351 306zM511 99c38 0 67 35 67 151c0 113 -50 189 -195 189c-146 0 -196 -75 -196 -190
c0 -108 24 -150 67 -150c32 0 55 13 55 88v112l147 19v-131c0 -70 22 -88 55 -88z" />
    <glyph glyph-name="uni01EB" unicode="&#x1eb;" horiz-adv-x="584" 
d="M383 -3c-91 -36 -109 -72 -109 -99c0 -30 17 -46 53 -46c19 0 38 3 61 8l-11 -98c-22 -5 -44 -8 -70 -8c-85 0 -147 45 -147 117c0 50 24 89 66 118c-122 26 -194 124 -194 277c0 170 98 282 260 282s260 -104 260 -283c0 -135 -62 -234 -169 -268zM292 432
c-64 0 -96 -51 -96 -166c0 -118 32 -167 96 -167s96 51 96 166c0 118 -32 167 -96 167z" />
    <glyph glyph-name="uni01ED" unicode="&#x1ed;" horiz-adv-x="584" 
d="M444 765v-110h-305v110h305zM383 -3c-91 -36 -109 -72 -109 -99c0 -30 17 -46 53 -46c19 0 38 3 61 8l-11 -98c-22 -5 -44 -8 -70 -8c-85 0 -147 45 -147 117c0 50 24 89 66 118c-122 26 -194 124 -194 277c0 170 98 282 260 282s260 -104 260 -283
c0 -135 -62 -234 -169 -268zM292 432c-64 0 -96 -51 -96 -166c0 -118 32 -167 96 -167s96 51 96 166c0 118 -32 167 -96 167z" />
    <glyph glyph-name="uni0254" unicode="&#x254;" horiz-adv-x="476" 
d="M184 -17c-76 0 -132 22 -179 60l71 92c33 -23 59 -35 100 -36c69 0 104 51 104 166c0 118 -32 167 -98 167c-37 0 -70 -11 -105 -35l-67 89c46 39 106 62 181 62c157 0 253 -102 253 -283c0 -170 -97 -282 -260 -282z" />
    <glyph glyph-name="oslash" unicode="&#xf8;" horiz-adv-x="584" 
d="M438 510c73 -45 114 -129 114 -245c0 -170 -98 -282 -260 -282c-12 0 -23 1 -34 2l-37 -120l-115 34l39 122c-72 46 -113 130 -113 245c0 170 98 282 260 282c11 0 22 -1 33 -2l39 121l116 -34zM292 432c-70 0 -109 -51 -109 -166c0 -69 9 -110 25 -134l100 300h-16z
M292 99c71 0 109 51 109 166c0 69 -9 110 -26 134l-99 -300h16z" />
    <glyph glyph-name="oslashacute" unicode="&#x1ff;" horiz-adv-x="584" 
d="M426 717l-236 -95l-44 81l218 132zM438 510c73 -45 114 -129 114 -245c0 -170 -98 -282 -260 -282c-12 0 -23 1 -34 2l-37 -120l-115 34l39 122c-72 46 -113 130 -113 245c0 170 98 282 260 282c11 0 22 -1 33 -2l39 121l116 -34zM292 432c-70 0 -109 -51 -109 -166
c0 -69 9 -110 25 -134l100 300h-16zM292 99c71 0 109 51 109 166c0 69 -9 110 -26 134l-99 -300h16z" />
    <glyph glyph-name="otilde" unicode="&#xf5;" horiz-adv-x="584" 
d="M350 635c-28 0 -47 8 -67 23c-18 13 -30 22 -47 22c-24 0 -37 -16 -53 -44l-79 38c25 64 69 118 129 118c31 0 49 -10 70 -24c18 -13 30 -21 46 -21c22 0 36 15 52 44l79 -39c-26 -67 -71 -117 -130 -117zM292 548c162 0 260 -104 260 -283c0 -170 -98 -282 -260 -282
c-161 0 -260 104 -260 283c0 170 98 282 260 282zM292 432c-64 0 -96 -51 -96 -166c0 -118 32 -167 96 -167s96 51 96 166c0 118 -32 167 -96 167z" />
    <glyph glyph-name="uni1E4D" unicode="&#x1e4d;" horiz-adv-x="584" 
d="M373 974l59 -118l-240 -87l-40 80zM350 594c-28 0 -47 8 -67 22c-18 14 -30 22 -47 22c-24 0 -37 -15 -53 -44l-79 39c25 64 69 118 129 118c31 0 49 -10 70 -24c18 -13 30 -21 46 -21c22 0 36 14 52 43l79 -38c-26 -67 -71 -117 -130 -117zM292 548
c162 0 260 -104 260 -283c0 -170 -98 -282 -260 -282c-161 0 -260 104 -260 283c0 170 98 282 260 282zM292 432c-64 0 -96 -51 -96 -166c0 -118 32 -167 96 -167s96 51 96 166c0 118 -32 167 -96 167z" />
    <glyph glyph-name="uni022D" unicode="&#x22d;" horiz-adv-x="584" 
d="M444 799h-305v109h305v-109zM350 594c-28 0 -47 8 -67 22c-18 14 -30 22 -47 22c-24 0 -37 -15 -53 -44l-79 39c25 64 69 118 129 118c31 0 49 -10 70 -24c18 -13 30 -21 46 -21c22 0 36 14 52 43l79 -38c-26 -67 -71 -117 -130 -117zM292 548c162 0 260 -104 260 -283
c0 -170 -98 -282 -260 -282c-161 0 -260 104 -260 283c0 170 98 282 260 282zM292 432c-64 0 -96 -51 -96 -166c0 -118 32 -167 96 -167s96 51 96 166c0 118 -32 167 -96 167z" />
    <glyph glyph-name="uni0223" unicode="&#x223;" horiz-adv-x="578" 
d="M427 417c77 -31 119 -94 119 -192c0 -133 -92 -242 -257 -242s-257 105 -257 242c0 93 41 158 117 190c-52 28 -79 74 -79 140v187h156v-212c0 -42 17 -71 63 -71c48 0 64 25 64 71v212h156v-187c0 -61 -29 -108 -82 -138zM289 99c67 0 94 42 94 128
c0 83 -28 128 -94 128c-65 0 -94 -45 -94 -129c0 -85 30 -127 94 -127z" />
    </font>
</defs>
</svg>
